Dorsey Pictures - Alaska Extreme: Series 1 (2019)

Posted By: Tutorial
1080p (FullHD) / HDTV
Dorsey Pictures - Alaska Extreme: Series 1 (2019)

Dorsey Pictures - Alaska Extreme: Series 1 (2019)
HDTV | 1920 x 1080 | .MP4/AVC @ 4893 Kbps | 10x~25mn | 10.5 GB
Audio: English AAC 160 Kbps, 2 channels | Subs: English
Genre: Documentary

Journey to the last frontier, as we explore the beautiful, remote, and deadly state of Alaska in this collaborative series.

Part 1: Alaskan Adventures
Alaska calls to a different type of person, one who seeks nature, solitude, and adventure. With amazing wildlife, untouched habitat, and eleven distinct mountain ranges, Alaska is a true playground for outdoorsmen and thrill seekers.


Part 2: Dangers of Alaska
If you know where to look, you will never starve in Alaska. We look at the amazing bounty of edible flora and fauna in the Last Frontier.


Part 3: Foraging for Food
We look at the amazing bounty of edible flora and fauna in the Last Frontier.With year-round opportunities to catch gigantic freshwater and saltwater fish,


Part 4: World Class Fishing
Alaska truly is a fishermans paradise. While the millions of salmon making their annual runs are the states most famous game fish, there are endless opportunities for an angler looking for a tug on his line.


Part 5: Weather in Alaska
They say there are four seasons in Alaska: Winter, June, July, and August. The weather in Alaska can quickly change, and for those unprepared, there can be massive consequences.


Part 6: Off the Grid
Alaska would be the 18th largest country in the world, but it has the least connected road system of any state in the USA. For those who choose to spend time off the grid, Alaska presents unique challenges and rewards.


Part 7: Flying in Alaska
Alaska has six times as many pilots and 16 times as many aircraft per capita than the rest of the United States. Since Alaska has a minimal road system, small planes and helicopters are the best way to get around this state.


Part 8: Amazing Migrations
Alaska is a land of great migrations. Caribou, salmon, bears, glaciers and even the people of Alaska are always on the move.


Part 9: Unique People and Places
From Arctic tundra to lush rainforest to high alpine peaks Alaska is a land of diverse climates and landscapes. We will take a look at the beauty of this amazing state and find the hidden gems within the Last Frontier, and the unique people who choose to live in this wild place.


Part 10: Alaskan Wildlife
Alaska is known for its untouched wilderness, gorgeous scenery, and amazing wildlife. We will learn what makes these beautiful and sometimes dangerous critters so unique.

General
Complete name : Alaska.Extreme.Series.1.01of10.Alaskan.Adventures.mp4
Format : MPEG-4
Format profile : Base Media
Codec ID : isom (isom)
File size : 935 MiB
Duration : 25 min 50 s
Overall bit rate mode : Variable
Overall bit rate : 5 056 kb/s
Encoded date : UTC 2019-03-15 12:06:03
Tagged date : UTC 2019-03-15 12:06:03
Writing application : My MP4Box GUI 0.6.0.6

Video
ID : 1
Format : AVC
Format/Info : Advanced Video Codec
Format profile : High@L4.1
Format settings, CABAC : No
Format settings, ReFrames : 2 frames
Format settings, GOP : M=1, N=12
Codec ID : avc1
Codec ID/Info : Advanced Video Coding
Duration : 25 min 50 s
Bit rate : 4 893 kb/s
Maximum bit rate : 26.5 Mb/s
Width : 1 920 pixels
Height : 1 080 pixels
Display aspect ratio : 16:9
Frame rate mode : Constant
Frame rate : 29.970 (30000/1001) FPS
Color space : YUV
Chroma subsampling : 4:2:0
Bit depth : 8 bits
Scan type : Progressive
Bits/(Pixel*Frame) : 0.079
Stream size : 905 MiB (97%)
Title : Alaska.Extreme.Series.1.01of10.Alaskan.Adventures.1080p.HDTV.x264.AAC..org.mp4
Encoded date : UTC 2019-03-14 17:39:09
Tagged date : UTC 2019-03-15 12:06:16

Audio
ID : 2
Format : AAC
Format/Info : Advanced Audio Codec
Format profile : LC
Codec ID : 40
Duration : 25 min 50 s
Bit rate mode : Variable
Bit rate : 160 kb/s
Maximum bit rate : 236 kb/s
Channel(s) : 2 channels
Channel positions : Front: L R
Sampling rate : 48.0 kHz
Frame rate : 46.875 FPS (1024 spf)
Compression mode : Lossy
Stream size : 29.6 MiB (3%)
Title : Alaska.Extreme.Series.1.01of10.Alaskan.Adventures.1080p.HDTV.x264.AAC..org.mp4
Language : English
Encoded date : UTC 2019-03-15 12:06:11
Tagged date : UTC 2019-03-15 12:06:16

Text
ID : 3
Format : Timed Text
Codec ID : tx3g
Duration : 25 min 49 s
Bit rate mode : Variable
Bit rate : 115 b/s
Stream size : 21.7 KiB (0%)
Title : Alaska.Extreme.Series.1.01of10.Alaskan.Adventures.1080p.HDTV.x264.AAC..org.srt
Forced : No
Encoded date : UTC 2019-03-15 12:06:16
Tagged date : UTC 2019-03-15 12:06:16
Screenshots

Dorsey Pictures - Alaska Extreme: Series 1 (2019)

Dorsey Pictures - Alaska Extreme: Series 1 (2019)

Welcome to my blog - daily update!

Dorsey Pictures - Alaska Extreme: Series 1 (2019)