Please register here if you want to download anything!

If domain in your address bar is different from the list below
PLEASE LEAVE THAT SITE IMMEDIATELY
❗IT'S A DANGEROUS FAKE❗



Spicy Magazines for Men! ;-)

Al-Jazeera World - Iraq's Dying Rivers (2019)

Posted By: notbanned
720p (HD) / HDTV
Al-Jazeera World - Iraq's Dying Rivers (2019)

Al-Jazeera World - Iraq's Dying Rivers (2019)
HDTV | 1280x664 | .MKV/AVC @ 2370 Kbps | 45 min 50 s | 799 MiB
Audio: English AAC 64 kbps, 2 channels | Subs: None
Genre: Documentary

For thousands of years, two famous rivers, the Tigris and Euphrates, made Iraq one of the most fertile regions in the Middle East. Often called "the cradle of civilisation", the first urban settlers grew up on the lands between the two ancient waterways. But today, things are dramatically different, for the rivers and the people who depend on them. Iraq's ancient rivers and water resources have been seriously damaged by wars, economic sanctions, the construction of upstream dams, pollution and a fall in water levels. The Tigris and Euphrates meet in Basra province, in the south of Iraq, where they form the Shatt al-Arab waterway. Tens of thousands of Iraqis live in marshes.

General
Unique ID : 70147426400454982929954835898548810959 (0x34C5E724A082C729A02852A9C96EF4CF)
Complete name : Al-Jazeera.World.2019.Iraqs.Dying.Rivers.720p.mkv
Format : Matroska
Format version : Version 4 / Version 2
File size : 799 MiB
Duration : 45 min 50 s
Overall bit rate : 2 436 kb/s

Video
ID : 1
Format : AVC
Format/Info : Advanced Video Codec
Format profile : High@L3.1
Format settings, CABAC : Yes
Format settings, ReFrames : 4 frames
Codec ID : V_MPEG4/ISO/AVC
Duration : 45 min 50 s
Bit rate : 2 370 kb/s
Width : 1 280 pixels
Height : 664 pixels
Display aspect ratio : 1.928
Frame rate mode : Constant
Frame rate : 25.000 FPS
Color space : YUV
Chroma subsampling : 4:2:0
Bit depth : 8 bits
Scan type : Progressive
Bits/(Pixel*Frame) : 0.112
Stream size : 777 MiB (97%)
Encoding settings : cabac=1 / ref=4 / deblock=1:0:0 / analyse=0x3:0x113 / me=umh / subme=9 / psy=1 / psy_rd=1.00:0.00 / mixed_ref=1 / me_range=24 / chroma_me=1 / trellis=1 / 8x8dct=1 / cqm=0 / deadzone=21,11 / fast_pskip=0 / chroma_qp_offset=-2 / threads=18 / lookahead_threads=2 / sliced_threads=0 / nr=0 / decimate=1 / interlaced=0 / bluray_compat=0 / constrained_intra=0 / bframes=6 / b_pyramid=2 / b_adapt=2 / b_bias=0 / direct=1 / weightb=1 / open_gop=0 / weightp=2 / keyint=250 / keyint_min=25 / scenecut=40 / intra_refresh=0 / rc_lookahead=40 / rc=crf / mbtree=1 / crf=20.0 / qcomp=0.60 / qpmin=0 / qpmax=69 / qpstep=4 / ip_ratio=1.40 / aq=1:1.00
Language : English
Default : Yes
Forced : No
Color range : Limited
Color primaries : BT.709
Transfer characteristics : BT.709
Matrix coefficients : BT.709

Audio
ID : 2
Format : AAC
Format/Info : Advanced Audio Codec
Format profile : HE-AAC / LC
Codec ID : A_AAC
Duration : 45 min 50 s
Bit rate : 64.0 kb/s
Channel(s) : 2 channels
Channel positions : Front: L R
Sampling rate : 48.0 kHz / 24.0 kHz
Frame rate : 23.438 FPS (1024 spf)
Compression mode : Lossy
Delay relative to video : 43 ms
Stream size : 21.0 MiB (3%)
Language : English
Default : Yes
Forced : No


Screenshots:

Al-Jazeera World - Iraq's Dying Rivers (2019)

Al-Jazeera World - Iraq's Dying Rivers (2019)

Al-Jazeera World - Iraq's Dying Rivers (2019)

Al-Jazeera World - Iraq's Dying Rivers (2019)