Action Point (2018)

Posted By: JohnSmith
SD / DVDRip IMDb
Action Point (2018)

Action Point (2018)
DVDRip | AVI / XviD@1860 kb/s | 720x304 | 1h 24mn | 1.37 GB | English: AC3, 448 kb/s (6 ch)
Genre: Comedy

A daredevil designs and operates his own theme park with his friends.




General
Complete name : E:\HDNL2GSR528\Action.Point.2018.DVDRip.XviD.AC3-EVO\Action.Point.2018.DVDRip.XviD.AC3-EVO.avi
Format : AVI
Format/Info : Audio Video Interleave
File size : 1.37 GiB
Duration : 1 h 24 min
Overall bit rate : 2 322 kb/s

Video
ID : 0
Format : MPEG-4 Visual
Format profile : Simple@L3
Format settings, BVOP : No
Format settings, QPel : No
Format settings, GMC : No warppoints
Format settings, Matrix : Default (H.263)
Codec ID : XVID
Codec ID/Hint : XviD
Duration : 1 h 24 min
Source duration : 1 h 24 min
Bit rate : 1 863 kb/s
Width : 720 pixels
Height : 304 pixels
Display aspect ratio : 2.35:1
Frame rate : 23.976 (24000/1001) FPS
Color space : YUV
Chroma subsampling : 4:2:0
Bit depth : 8 bits
Scan type : Progressive
Compression mode : Lossy
Bits/(Pixel*Frame) : 0.355
Stream size : 1.10 GiB (80%)
Writing library : XviD 1.1.2 (UTC 2006-11-01)

Audio
ID : 1
Format : AC-3
Format/Info : Audio Coding 3
Mode extension : CM (complete main)
Format settings, Endianness : Big
Codec ID : 2000
Duration : 1 h 24 min
Bit rate mode : Constant
Bit rate : 448 kb/s
Channel(s) : 6 channels
Channel positions : Front: L C R, Side: L R, LFE
Sampling rate : 48.0 kHz
Frame rate : 31.250 FPS (1536 spf)
Bit depth : 16 bits
Compression mode : Lossy
Stream size : 271 MiB (19%)
Alignment : Aligned on interleaves
Interleave, duration : 32 ms (0.77 video frame)




Screenshots

Action Point (2018)

Action Point (2018)

Action Point (2018)