Tags
Language
Tags

The Occupant (2020)

Posted By: Tavaz
1080p (FullHD) / WEBRip IMDb
The Occupant (2020)

The Occupant (2020)
WEBRip | MKV | 1080p | Español | H264 @ 4420kbps | AC3 @ 640 kbps 5.1 | 1 h 43 min | 2.17 GiB
Subtitles: ภาษาไทย, Français, tiếng Việt, Español, Magyar, עברית, Русский, Ελληνικά, Nederlands, Dansk, Bahasa Indonesia, Bokmål, 中文, Suomi, Polski, Türkçe, English, हिन्दी, Română, العربية, Deutsch, Svenska, Italiano, Português, Čeština
Genre: Drama, Thriller

An unemployed executive is forced to sell his apartment. When he discovers that he still has the keys, he will become obsessed with the family that now lives there and will decide to recover the life he has lost, at any price.

37f68f8b619d46a7b6878d194319579f.mp4 (1.6 GB)



General
Complete name : ./37f68f8b619d46a7b6878d194319579f.mp4
Format : MPEG-4
Format profile : Base Media
Codec ID : isom (isom/iso2/avc1/mp41)
File size : 1.63 GiB
Duration : 2 h 0 min
Overall bit rate : 1 939 kb/s
Writing application : Lavf58.32.104

Video
ID : 1
Format : AVC
Format/Info : Advanced Video Codec
Format profile : Main@L3.1
Format settings : CABAC / 4 Ref Frames
Format settings, CABAC : Yes
Format settings, RefFrames : 4 frames
Format settings, GOP : M=4, N=60
Codec ID : avc1
Codec ID/Info : Advanced Video Coding
Duration : 2 h 0 min
Bit rate : 1 833 kb/s
Width : 1 280 pixels
Height : 720 pixels
Display aspect ratio : 16:9
Frame rate mode : Variable
Frame rate : 29.970 (30000/1001) FPS
Minimum frame rate : 29.412 FPS
Maximum frame rate : 30.303 FPS
Color space : YUV
Chroma subsampling : 4:2:0
Bit depth : 8 bits
Scan type : Progressive
Bits/(Pixel*Frame) : 0.066
Stream size : 1.54 GiB (95%)

Audio
ID : 2
Format : AAC
Format/Info : Advanced Audio Codec
Format profile : LC
Codec ID : mp4a-40-2
Duration : 2 h 0 min
Bit rate mode : Constant
Bit rate : 96.0 kb/s
Channel(s) : 2 channels
Channel positions : Front: L R
Sampling rate : 48.0 kHz
Frame rate : 46.875 FPS (1024 SPF)
Compression mode : Lossy
Stream size : 82.4 MiB (5%)
Default : Yes
Alternate group : 1





The Occupant (2020)


The Occupant (2020)


The Occupant (2020)


The Occupant (2020)


The Occupant (2020)