Featured TV Shows


Murdoch Mysteries S12E15

Posted By: Tavaz
SD / WEBRip IMDb
Murdoch Mysteries S12E15

Murdoch Mysteries S12E15
WEBRip | MKV | 720x404 | English | H264 @ 625 kbps | AAC @ 192 kbps | 44 min 12 s | 258 MiB
Genre: Drama, Mystery

A Victorian-era Toronto detective uses then-cutting edge forensic techniques to solve crimes, with the assistance of a female coroner who is also struggling for recognition in the face of tradition, based on the books by Maureen Jennings.

084ceb17535f45c7bfd9aee2d839a0a2.mkv (258.3 MB)



General
Unique ID : 64231224897361588404373263317191951408 (0x30527BE374AED74156EAF680D7390430)
Complete name : ./084ceb17535f45c7bfd9aee2d839a0a2.mkv
Format : Matroska
Format version : Version 4 / Version 2
File size : 258 MiB
Duration : 44 min 12 s
Overall bit rate : 817 kb/s
Encoded date : UTC 2019-02-12 00:30:45
Writing application : mkvmerge v29.0.0 ('Like It Or Not') 64-bit
Writing library : libebml v1.3.6 + libmatroska v1.4.9

Video
ID : 1
Format : AVC
Format/Info : Advanced Video Codec
Format profile : High@L3.1
Format settings : CABAC / 5 Ref Frames
Format settings, CABAC : Yes
Format settings, RefFrames : 5 frames
Codec ID : V_MPEG4/ISO/AVC
Duration : 44 min 12 s
Bit rate : 625 kb/s
Width : 720 pixels
Height : 404 pixels
Display aspect ratio : 16:9
Frame rate mode : Constant
Frame rate : 23.976 (24000/1001) FPS
Color space : YUV
Chroma subsampling : 4:2:0
Bit depth : 8 bits
Scan type : Progressive
Bits/(Pixel*Frame) : 0.090
Stream size : 198 MiB (77%)
Writing library : x264 core 157 r2935 545de2f
Encoding settings : cabac=1 / ref=5 / deblock=1:-3:-3 / analyse=0x3:0x113 / me=hex / subme=8 / psy=1 / psy_rd=1.00:0.15 / mixed_ref=1 / me_range=16 / chroma_me=1 / trellis=2 / 8x8dct=1 / cqm=0 / deadzone=21,11 / fast_pskip=1 / chroma_qp_offset=-3 / threads=13 / lookahead_threads=2 / sliced_threads=0 / nr=0 / decimate=1 / interlaced=0 / bluray_compat=0 / constrained_intra=0 / bframes=3 / b_pyramid=2 / b_adapt=2 / b_bias=0 / direct=3 / weightb=1 / open_gop=0 / weightp=2 / keyint=250 / keyint_min=23 / scenecut=40 / intra_refresh=0 / rc_lookahead=50 / rc=crf / mbtree=1 / crf=19.0 / qcomp=0.60 / qpmin=0 / qpmax=69 / qpstep=4 / ip_ratio=1.40 / aq=1:1.00
Language : English
Default : Yes
Forced : No
Color range : Limited
Matrix coefficients : BT.709

Audio
ID : 2
Format : AAC
Format/Info : Advanced Audio Codec
Format profile : LC
Codec ID : A_AAC-2
Duration : 44 min 12 s
Bit rate : 192 kb/s
Channel(s) : 2 channels
Channel positions : Front: L R
Sampling rate : 44.1 kHz
Frame rate : 43.066 FPS (1024 SPF)
Compression mode : Lossy
Stream size : 59.9 MiB (23%)
Default : Yes
Forced : No





Murdoch Mysteries S12E15


Murdoch Mysteries S12E15


Murdoch Mysteries S12E15


Murdoch Mysteries S12E15


Murdoch Mysteries S12E15

All episodes