Featured TV Shows


Trapped S02E05

Posted By: Tavaz
1080p (FullHD) / HDTV IMDb
Trapped S02E05

Trapped S02E05
HDTV | MKV | 1920x1080 | H264 @ 3208 kbps | MPEG Audio @ 192 kbps | 47 min 25 s | 1.13 GiB
Genre: Drama, Mystery


Icelandic crime drama featuring Chief of Police Andri.

913257192c661538ea7cf7e152b213ef.mkv (1.1 GB)



General
Unique ID : 197537252714751766364257083460769224600 (0x949C4A7FDCE69858619F7E6928B71798)
Complete name : ./913257192c661538ea7cf7e152b213ef.mkv
Format : Matroska
Format version : Version 4 / Version 2
File size : 1.13 GiB
Duration : 47 min 25 s
Overall bit rate : 3 403 kb/s
Encoded date : UTC 2020-05-17 02:45:23
Writing application : mkvmerge v28.2.0 ('The Awakening') 64-bit
Writing library : libebml v1.3.6 + libmatroska v1.4.9

Video
ID : 1
Format : AVC
Format/Info : Advanced Video Codec
Format profile : High@L4
Format settings : CABAC / 4 Ref Frames
Format settings, CABAC : Yes
Format settings, RefFrames : 4 frames
Format settings, GOP : M=8, N=24
Codec ID : V_MPEG4/ISO/AVC
Duration : 47 min 25 s
Bit rate : 3 209 kb/s
Width : 1 920 pixels
Height : 1 080 pixels
Display aspect ratio : 16:9
Frame rate mode : Constant
Frame rate : 25.000 FPS
Standard : Component
Color space : YUV
Chroma subsampling : 4:2:0
Bit depth : 8 bits
Scan type : MBAFF
Scan type, store method : Interleaved fields
Scan order : Top Field First
Bits/(Pixel*Frame) : 0.062
Stream size : 1.06 GiB (94%)
Default : Yes
Forced : No
Color range : Limited
Color primaries : BT.709
Transfer characteristics : BT.709
Matrix coefficients : BT.709

Audio
ID : 2
Format : MPEG Audio
Format version : Version 1
Format profile : Layer 2
Codec ID : A_MPEG/L2
Codec ID/Hint : MP2
Duration : 47 min 25 s
Bit rate mode : Constant
Bit rate : 192 kb/s
Channel(s) : 2 channels
Sampling rate : 48.0 kHz
Frame rate : 41.667 FPS (1152 SPF)
Compression mode : Lossy
Stream size : 65.1 MiB (6%)
Default : Yes
Forced : No





Trapped S02E05


Trapped S02E05


Trapped S02E05


Trapped S02E05


Trapped S02E05

All episodes