Featured TV Shows


Trapped S02E02

Posted By: Tavaz
1080p (FullHD) / HDTV IMDb
Trapped S02E02

Trapped S02E02
HDTV | MKV | 1920x1080 | H264 @ 3347 kbps | MPEG Audio @ 192 kbps | 48 min 37 s | 1.20 GiB
Genre: Drama, Mystery


Icelandic crime drama featuring Chief of Police Andri.

17d6419b50bc514cff2dbe8a956b0be6.mkv (1.2 GB)



General
Unique ID : 262842344892343782463229130978857823279 (0xC5BD9821F47B184E5FB69D682B77AC2F)
Complete name : ./17d6419b50bc514cff2dbe8a956b0be6.mkv
Format : Matroska
Format version : Version 4 / Version 2
File size : 1.20 GiB
Duration : 48 min 37 s
Overall bit rate : 3 541 kb/s
Encoded date : UTC 2020-05-17 02:44:41
Writing application : mkvmerge v28.2.0 ('The Awakening') 64-bit
Writing library : libebml v1.3.6 + libmatroska v1.4.9

Video
ID : 1
Format : AVC
Format/Info : Advanced Video Codec
Format profile : High@L4
Format settings : CABAC / 4 Ref Frames
Format settings, CABAC : Yes
Format settings, RefFrames : 4 frames
Format settings, GOP : M=8, N=24
Codec ID : V_MPEG4/ISO/AVC
Duration : 48 min 37 s
Bit rate : 3 347 kb/s
Width : 1 920 pixels
Height : 1 080 pixels
Display aspect ratio : 16:9
Frame rate mode : Constant
Frame rate : 25.000 FPS
Standard : Component
Color space : YUV
Chroma subsampling : 4:2:0
Bit depth : 8 bits
Scan type : MBAFF
Scan type, store method : Interleaved fields
Scan order : Top Field First
Bits/(Pixel*Frame) : 0.065
Stream size : 1.14 GiB (95%)
Default : Yes
Forced : No
Color range : Limited
Color primaries : BT.709
Transfer characteristics : BT.709
Matrix coefficients : BT.709

Audio
ID : 2
Format : MPEG Audio
Format version : Version 1
Format profile : Layer 2
Codec ID : A_MPEG/L2
Codec ID/Hint : MP2
Duration : 48 min 37 s
Bit rate mode : Constant
Bit rate : 192 kb/s
Channel(s) : 2 channels
Sampling rate : 48.0 kHz
Frame rate : 41.667 FPS (1152 SPF)
Compression mode : Lossy
Stream size : 66.8 MiB (5%)
Default : Yes
Forced : No





Trapped S02E02


Trapped S02E02


Trapped S02E02


Trapped S02E02


Trapped S02E02

All episodes