Featured TV Shows


Tom Clancy's Jack Ryan S01E06

Posted By: Tavaz
1080p (FullHD) / WEBRip IMDb
Tom Clancy's Jack Ryan S01E06

Tom Clancy's Jack Ryan S01E06
WEBRip | MKV | 1920x1080 | English | H264 @ 8121 kbps | E-AC-3 @ 640 kbps | 56 min 13 s | 3.51 GiB
Subtitles: English (United States)
Genre: Drama

When CIA analyst Jack Ryan stumbles upon a suspicious series of bank transfers his search for answers pulls him from the safety of his desk job and catapults him into a deadly game of cat and mouse throughout Europe and the Middle East, with a rising terrorist figurehead preparing for a massive attack against the US and her allies.

eb4937d9fc4c4d13b8070ecf177f9869.mkv (3.5 GB)



General
Unique ID : 297511246716639557096829316324147513963 (0xDFD294F65F84DA39ACFAFECEF1DECA6B)
Complete name : ./eb4937d9fc4c4d13b8070ecf177f9869.mkv
Format : Matroska
Format version : Version 4 / Version 2
File size : 3.51 GiB
Duration : 56 min 13 s
Overall bit rate : 8 939 kb/s
Movie name : Tom Clancy's Jack Ryan S01E06
Writing application : Lavf57.72.101
Writing library : Lavf57.72.101
ErrorDetectionType : Per level 1

Video
ID : 1
Format : AVC
Format/Info : Advanced Video Codec
Format profile : High@L4
Format settings : CABAC / 4 Ref Frames
Format settings, CABAC : Yes
Format settings, RefFrames : 4 frames
Codec ID : V_MPEG4/ISO/AVC
Duration : 56 min 13 s
Bit rate : 8 121 kb/s
Width : 1 920 pixels
Height : 1 080 pixels
Display aspect ratio : 16:9
Frame rate mode : Constant
Frame rate : 23.976 (24000/1001) FPS
Color space : YUV
Chroma subsampling : 4:2:0
Bit depth : 8 bits
Scan type : Progressive
Bits/(Pixel*Frame) : 0.163
Stream size : 3.19 GiB (91%)
Default : Yes
Forced : No
Color range : Limited
Color primaries : BT.709
Transfer characteristics : BT.709
Matrix coefficients : BT.709

Audio
ID : 2
Format : E-AC-3
Format/Info : Enhanced Audio Coding 3
Format settings, Endianness : Big
Codec ID : A_EAC3
Duration : 56 min 13 s
Bit rate mode : Constant
Bit rate : 640 kb/s
Channel(s) : 6 channels
Channel positions : Front: L C R, Side: L R, LFE
Sampling rate : 48.0 kHz
Frame rate : 187.500 FPS (256 SPF)
Bit depth : 32 bits
Compression mode : Lossy
Stream size : 257 MiB (7%)
Title : English
Language : English
Service kind : Complete Main
Default : Yes
Forced : No

Text
ID : 3
Format : UTF-8
Codec ID : S_TEXT/UTF8
Codec ID/Info : UTF-8 Plain Text
Title : English [CC]
Language : English (United States)
Default : No
Forced : No





Tom Clancy's Jack Ryan S01E06


Tom Clancy's Jack Ryan S01E06


Tom Clancy's Jack Ryan S01E06


Tom Clancy's Jack Ryan S01E06


Tom Clancy's Jack Ryan S01E06

All episodes