Titans S01E08

Posted By: Tavaz
SD / WEB-DL IMDb
Titans S01E08

Titans S01E08
WEB-DL | MKV | 640x480 | English | H264 @ 1350 kbps | E-AC-3 @ 192 kbps | 43 min 8 s | 469 MiB
Subtitles: Swedish, Norwegian Bokmal, Turkish, Romanian, Dutch, Korean, Danish, Indonesian, Vietnamese, French, Russian, Thai, Finnish, Spanish, Greek, English, Italian, Portuguese, Chinese, German, Japanese, Hebrew, Polish, Arabic

A team of young superheroes led by Nightwing (formerly Batman's first Robin) form to combat evil and other perils.

2d2aeeb0b6434042a006d850bca0c063.mkv (469.4 MB)



General
Unique ID : 86766971947735033996352025961463556552 (0x4146B6008B2AD58D44A9DD945B7029C8)
Complete name : ./2d2aeeb0b6434042a006d850bca0c063.mkv
Format : Matroska
Format version : Version 4 / Version 2
File size : 469 MiB
Duration : 43 min 8 s
Overall bit rate mode : Variable
Overall bit rate : 1 521 kb/s
Encoded date : UTC 2019-01-11 08:16:24
Writing application : mkvmerge v21.0.0 ('Tardigrades Will Inherit The Earth') 64-bit
Writing library : libebml v1.3.5 + libmatroska v1.4.8

Video
ID : 1
Format : AVC
Format/Info : Advanced Video Codec
Format profile : Baseline@L3
Format settings : 3 Ref Frames
Format settings, CABAC : No
Format settings, RefFrames : 3 frames
Format settings, GOP : M=1, N=48
Codec ID : V_MPEG4/ISO/AVC
Duration : 43 min 8 s
Bit rate mode : Variable
Bit rate : 1 350 kb/s
Maximum bit rate : 2 025 kb/s
Width : 640 pixels
Height : 480 pixels
Display aspect ratio : 16:9
Frame rate mode : Constant
Frame rate : 23.976 (24000/1001) FPS
Color space : YUV
Chroma subsampling : 4:2:0
Bit depth : 8 bits
Scan type : Progressive
Bits/(Pixel*Frame) : 0.183
Stream size : 409 MiB (87%)
Writing library : x264 core 148 r2715 7e75228
Encoding settings : cabac=0 / ref=3 / deblock=1:0:0 / analyse=0x1:0x111 / me=umh / subme=9 / psy=1 / psy_rd=1.00:0.00 / mixed_ref=1 / me_range=24 / chroma_me=1 / trellis=1 / 8x8dct=0 / cqm=0 / deadzone=21,11 / fast_pskip=1 / chroma_qp_offset=-2 / threads=8 / lookahead_threads=1 / sliced_threads=0 / nr=0 / decimate=1 / interlaced=0 / bluray_compat=0 / stitchable=1 / constrained_intra=0 / bframes=0 / weightp=0 / keyint=48 / keyint_min=25 / scenecut=0 / intra_refresh=0 / rc_lookahead=48 / rc=2pass / mbtree=1 / bitrate=1350 / ratetol=1.0 / qcomp=0.50 / qpmin=8 / qpmax=51 / qpstep=4 / cplxblur=20.0 / qblur=0.5 / vbv_maxrate=2025 / vbv_bufsize=2700 / nal_hrd=vbr / filler=0 / ip_ratio=1.40 / aq=1:1.00
Default : Yes
Forced : No

Audio
ID : 2
Format : E-AC-3
Format/Info : Enhanced Audio Coding 3
Format settings, Endianness : Big
Codec ID : A_EAC3
Duration : 43 min 8 s
Bit rate mode : Constant
Bit rate : 192 kb/s
Channel(s) : 6 channels
Channel positions : Front: L C R, Side: L R, LFE
Sampling rate : 48.0 kHz
Frame rate : 187.500 FPS (256 SPF)
Compression mode : Lossy
Stream size : 59.3 MiB (13%)
Language : English
Service kind : Complete Main
Default : Yes
Forced : No

Text #1
ID : 3
Format : UTF-8
Codec ID : S_TEXT/UTF8
Codec ID/Info : UTF-8 Plain Text
Duration : 40 min 37 s
Bit rate : 55 b/s
Count of elements : 520
Stream size : 16.6 KiB (0%)
Language : English
Default : No
Forced : No

Text #2
ID : 4
Format : UTF-8
Codec ID : S_TEXT/UTF8
Codec ID/Info : UTF-8 Plain Text
Duration : 40 min 44 s
Bit rate : 62 b/s
Count of elements : 567
Stream size : 18.7 KiB (0%)
Title : SDH
Language : English
Default : No
Forced : No

Text #3
ID : 5
Format : UTF-8
Codec ID : S_TEXT/UTF8
Codec ID/Info : UTF-8 Plain Text
Duration : 40 min 37 s
Bit rate : 98 b/s
Count of elements : 525
Stream size : 29.3 KiB (0%)
Language : Arabic
Default : No
Forced : No

Text #4
ID : 6
Format : UTF-8
Codec ID : S_TEXT/UTF8
Codec ID/Info : UTF-8 Plain Text
Duration : 40 min 37 s
Bit rate : 52 b/s
Count of elements : 523
Stream size : 15.5 KiB (0%)
Language : Danish
Default : No
Forced : No

Text #5
ID : 7
Format : UTF-8
Codec ID : S_TEXT/UTF8
Codec ID/Info : UTF-8 Plain Text
Duration : 40 min 37 s
Bit rate : 53 b/s
Count of elements : 523
Stream size : 16.0 KiB (0%)
Language : German
Default : No
Forced : No

Text #6
ID : 8
Format : UTF-8
Codec ID : S_TEXT/UTF8
Codec ID/Info : UTF-8 Plain Text
Duration : 40 min 37 s
Bit rate : 89 b/s
Count of elements : 525
Stream size : 26.5 KiB (0%)
Language : Greek
Default : No
Forced : No

Text #7
ID : 9
Format : UTF-8
Codec ID : S_TEXT/UTF8
Codec ID/Info : UTF-8 Plain Text
Duration : 40 min 37 s
Bit rate : 51 b/s
Count of elements : 523
Stream size : 15.3 KiB (0%)
Title : European
Language : Spanish
Default : No
Forced : No

Text #8
ID : 10
Format : UTF-8
Codec ID : S_TEXT/UTF8
Codec ID/Info : UTF-8 Plain Text
Duration : 40 min 37 s
Bit rate : 55 b/s
Count of elements : 523
Stream size : 16.5 KiB (0%)
Language : Spanish
Default : No
Forced : No

Text #9
ID : 11
Format : UTF-8
Codec ID : S_TEXT/UTF8
Codec ID/Info : UTF-8 Plain Text
Duration : 40 min 37 s
Bit rate : 49 b/s
Count of elements : 520
Stream size : 14.7 KiB (0%)
Language : Finnish
Default : No
Forced : No

Text #10
ID : 12
Format : UTF-8
Codec ID : S_TEXT/UTF8
Codec ID/Info : UTF-8 Plain Text
Duration : 40 min 37 s
Bit rate : 53 b/s
Count of elements : 519
Stream size : 15.9 KiB (0%)
Language : French
Default : No
Forced : No

Text #11
ID : 13
Format : UTF-8
Codec ID : S_TEXT/UTF8
Codec ID/Info : UTF-8 Plain Text
Duration : 40 min 37 s
Bit rate : 84 b/s
Count of elements : 525
Stream size : 25.1 KiB (0%)
Language : Hebrew
Default : No
Forced : No

Text #12
ID : 14
Format : UTF-8
Codec ID : S_TEXT/UTF8
Codec ID/Info : UTF-8 Plain Text
Duration : 40 min 38 s
Bit rate : 49 b/s
Count of elements : 546
Stream size : 14.8 KiB (0%)
Language : Indonesian
Default : No
Forced : No

Text #13
ID : 15
Format : UTF-8
Codec ID : S_TEXT/UTF8
Codec ID/Info : UTF-8 Plain Text
Duration : 40 min 37 s
Bit rate : 53 b/s
Count of elements : 523
Stream size : 15.9 KiB (0%)
Language : Italian
Default : No
Forced : No

Text #14
ID : 16
Format : UTF-8
Codec ID : S_TEXT/UTF8
Codec ID/Info : UTF-8 Plain Text
Duration : 40 min 38 s
Bit rate : 56 b/s
Count of elements : 563
Stream size : 16.8 KiB (0%)
Language : Japanese
Default : No
Forced : No

Text #15
ID : 17
Format : UTF-8
Codec ID : S_TEXT/UTF8
Codec ID/Info : UTF-8 Plain Text
Duration : 40 min 37 s
Bit rate : 71 b/s
Count of elements : 525
Stream size : 21.2 KiB (0%)
Language : Korean
Default : No
Forced : No

Text #16
ID : 18
Format : UTF-8
Codec ID : S_TEXT/UTF8
Codec ID/Info : UTF-8 Plain Text
Duration : 40 min 37 s
Bit rate : 51 b/s
Count of elements : 523
Stream size : 15.2 KiB (0%)
Language : Norwegian Bokmal
Default : No
Forced : No

Text #17
ID : 19
Format : UTF-8
Codec ID : S_TEXT/UTF8
Codec ID/Info : UTF-8 Plain Text
Duration : 40 min 37 s
Bit rate : 49 b/s
Count of elements : 508
Stream size : 14.8 KiB (0%)
Language : Dutch
Default : No
Forced : No

Text #18
ID : 20
Format : UTF-8
Codec ID : S_TEXT/UTF8
Codec ID/Info : UTF-8 Plain Text
Duration : 40 min 37 s
Bit rate : 54 b/s
Count of elements : 519
Stream size : 16.3 KiB (0%)
Language : Polish
Default : No
Forced : No

Text #19
ID : 21
Format : UTF-8
Codec ID : S_TEXT/UTF8
Codec ID/Info : UTF-8 Plain Text
Duration : 40 min 37 s
Bit rate : 57 b/s
Count of elements : 523
Stream size : 17.0 KiB (0%)
Language : Portuguese
Default : No
Forced : No

Text #20
ID : 22
Format : UTF-8
Codec ID : S_TEXT/UTF8
Codec ID/Info : UTF-8 Plain Text
Duration : 40 min 37 s
Bit rate : 52 b/s
Count of elements : 523
Stream size : 15.6 KiB (0%)
Title : Brazilian
Language : Portuguese
Default : No
Forced : No

Text #21
ID : 23
Format : UTF-8
Codec ID : S_TEXT/UTF8
Codec ID/Info : UTF-8 Plain Text
Duration : 40 min 37 s
Bit rate : 67 b/s
Count of elements : 523
Stream size : 20.0 KiB (0%)
Language : Romanian
Default : No
Forced : No

Text #22
ID : 24
Format : UTF-8
Codec ID : S_TEXT/UTF8
Codec ID/Info : UTF-8 Plain Text
Duration : 40 min 37 s
Bit rate : 87 b/s
Count of elements : 525
Stream size : 26.2 KiB (0%)
Language : Russian
Default : No
Forced : No

Text #23
ID : 25
Format : UTF-8
Codec ID : S_TEXT/UTF8
Codec ID/Info : UTF-8 Plain Text
Duration : 40 min 37 s
Bit rate : 51 b/s
Count of elements : 524
Stream size : 15.3 KiB (0%)
Language : Swedish
Default : No
Forced : No

Text #24
ID : 26
Format : UTF-8
Codec ID : S_TEXT/UTF8
Codec ID/Info : UTF-8 Plain Text
Duration : 40 min 37 s
Bit rate : 149 b/s
Count of elements : 525
Stream size : 44.6 KiB (0%)
Language : Thai
Default : No
Forced : No

Text #25
ID : 27
Format : UTF-8
Codec ID : S_TEXT/UTF8
Codec ID/Info : UTF-8 Plain Text
Duration : 40 min 37 s
Bit rate : 55 b/s
Count of elements : 523
Stream size : 16.5 KiB (0%)
Language : Turkish
Default : No
Forced : No

Text #26
ID : 28
Format : UTF-8
Codec ID : S_TEXT/UTF8
Codec ID/Info : UTF-8 Plain Text
Duration : 40 min 37 s
Bit rate : 84 b/s
Count of elements : 523
Stream size : 25.1 KiB (0%)
Language : Vietnamese
Default : No
Forced : No

Text #27
ID : 29
Format : UTF-8
Codec ID : S_TEXT/UTF8
Codec ID/Info : UTF-8 Plain Text
Duration : 40 min 37 s
Bit rate : 65 b/s
Count of elements : 525
Stream size : 19.6 KiB (0%)
Title : Simplified
Language : Chinese
Default : No
Forced : No

Text #28
ID : 30
Format : UTF-8
Codec ID : S_TEXT/UTF8
Codec ID/Info : UTF-8 Plain Text
Duration : 40 min 37 s
Bit rate : 61 b/s
Count of elements : 525
Stream size : 18.4 KiB (0%)
Title : Traditional
Language : Chinese
Default : No
Forced : No





Titans S01E08


Titans S01E08


Titans S01E08


Titans S01E08


Titans S01E08

All episodes