The Walking Dead S09E09

Posted By: Tavaz
The Walking Dead S09E09

The Walking Dead S09E09
TS | 1920x1080 | German / English | H264 @ 6302 kbps | AC-3 @ 384 kbps | 48 min 39 s | 2.53 GiB
Genre: Drama

The Walking Dead spielt bislang in der Metropolregion von Atlanta, im Südosten der Vereinigten Staaten, und erzählt vom Kampf einer kleinen Gruppe Überlebender nach einer weltweiten Zombie-Apokalypse. Unter Führung des Sheriffs Rick Grimes ist die Gruppe auf der Suche nach einer dauerhaften und vor allem sicheren Bleibe. Dabei stellen die fast überall präsenten Untoten eine permanent vorhandene Bedrohung dar, die jederzeit ohne Vorwarnung zuschlagen kann. Im Laufe der Zeit wird die Gruppe daher zwangsläufig immer kleiner, da manche Mitglieder den Zombieszum Opfer fallen, andere die Gruppe verlassen oder sich für den Tod entscheiden.

The.Walking.Dead.S09.E09.Home.Sweet.Home1080.HD.German.mkv (2.5 GB)



General
ID : 12 (0xC)
Complete name : ./The.Walking.Dead.S09.E09.Home.Sweet.Home1080.HD.German.mkv
Format : MPEG-TS
File size : 2.53 GiB
Duration : 48 min 39 s
Overall bit rate mode : Variable
Overall bit rate : 7 447 kb/s
FileExtension_Invalid : ts m2t m2s m4t m4s tmf ts tp trp ty

Video
ID : 2559 (0x9FF)
Menu ID : 124 (0x7C)
Format : AVC
Format/Info : Advanced Video Codec
Format profile : Main@L4
Format settings : CABAC / 4 Ref Frames
Format settings, CABAC : Yes
Format settings, RefFrames : 4 frames
Format settings, GOP : M=4, N=24
Codec ID : 27
Duration : 48 min 38 s
Bit rate : 6 303 kb/s
Width : 1 920 pixels
Height : 1 080 pixels
Display aspect ratio : 16:9
Frame rate : 25.000 FPS
Color space : YUV
Chroma subsampling : 4:2:0
Bit depth : 8 bits
Scan type : MBAFF
Scan type, store method : Interleaved fields
Scan order : Top Field First
Bits/(Pixel*Frame) : 0.122
Stream size : 2.14 GiB (85%)

Audio #1
ID : 2563 (0xA03)
Menu ID : 124 (0x7C)
Format : AC-3
Format/Info : Audio Coding 3
Format settings, Endianness : Big
Codec ID : 6
Duration : 48 min 39 s
Bit rate mode : Constant
Bit rate : 384 kb/s
Channel(s) : 2 channels
Channel positions : Front: L R
Sampling rate : 48.0 kHz
Frame rate : 31.250 FPS (1536 SPF)
Bit depth : 16 bits
Compression mode : Lossy
Delay relative to video : -912 ms
Stream size : 134 MiB (5%)
Language : German
Language, more info : Clean effects
Service kind : Complete Main

Audio #2
ID : 2564 (0xA04)
Menu ID : 124 (0x7C)
Format : AC-3
Format/Info : Audio Coding 3
Format settings, Endianness : Big
Codec ID : 6
Duration : 48 min 39 s
Bit rate mode : Constant
Bit rate : 384 kb/s
Channel(s) : 2 channels
Channel positions : Front: L R
Sampling rate : 48.0 kHz
Frame rate : 31.250 FPS (1536 SPF)
Bit depth : 16 bits
Compression mode : Lossy
Delay relative to video : -1 s 108 ms
Stream size : 134 MiB (5%)
Language : English
Language, more info : Clean effects
Service kind : Complete Main

Menu
ID : 105 (0x69)
Menu ID : 124 (0x7C)
Duration : 48 min 39 s
List : 2559 (0x9FF) (AVC) / 2563 (0xA03) (AC-3, German) / 2564 (0xA04) (AC-3, English)
Language : / German / English





The Walking Dead S09E09


The Walking Dead S09E09


The Walking Dead S09E09


The Walking Dead S09E09


The Walking Dead S09E09

All episodes