Featured TV Shows


The Spanish Princess S02E02

Posted By: Tavaz
720p (HD) / WEBRip IMDb
The Spanish Princess S02E02

The Spanish Princess S02E02
WEBRip | MKV | 1280x720 | H264 @ 4554 kbps | E-AC-3 @ 640 kbps | 57 min 19 s | 2.12 GiB
Genre: Drama


La preciosa princesa española, Catalina de Aragón, viaja por el linaje real de Inglaterra con un ojo puesto en el trono.

0341f631ad874c77b09497a31dea25b4.mkv (2.1 GB)



General
Unique ID : 234918643254647682806809715892034153327 (0xB0BBAF592371A73640B971EF43C72B6F)
Complete name : ./0341f631ad874c77b09497a31dea25b4.mkv
Format : Matroska
Format version : Version 4 / Version 2
File size : 2.12 GiB
Duration : 57 min 19 s
Overall bit rate : 5 300 kb/s
Writing application : Lavf58.42.100
Writing library : Lavf58.42.100
ErrorDetectionType : Per level 1

Video
ID : 1
Format : AVC
Format/Info : Advanced Video Codec
Format profile : High@L3.1
Format settings : CABAC / 4 Ref Frames
Format settings, CABAC : Yes
Format settings, RefFrames : 4 frames
Codec ID : V_MPEG4/ISO/AVC
Duration : 57 min 19 s
Bit rate mode : Constant
Bit rate : 4 555 kb/s
Nominal bit rate : 6 000 kb/s
Width : 1 280 pixels
Height : 720 pixels
Display aspect ratio : 16:9
Frame rate mode : Constant
Frame rate : 23.976 (24000/1001) FPS
Color space : YUV
Chroma subsampling : 4:2:0
Bit depth : 8 bits
Scan type : Progressive
Bits/(Pixel*Frame) : 0.206
Stream size : 1.82 GiB (86%)
Default : Yes
Forced : No
Color range : Limited
Color primaries : BT.709
Transfer characteristics : BT.709
Matrix coefficients : BT.709

Audio
ID : 2
Format : E-AC-3
Format/Info : Enhanced Audio Coding 3
Format settings, Endianness : Big
Codec ID : A_EAC3
Duration : 57 min 19 s
Bit rate mode : Constant
Bit rate : 640 kb/s
Channel(s) : 6 channels
Channel positions : Front: L C R, Side: L R, LFE
Sampling rate : 48.0 kHz
Frame rate : 187.500 FPS (256 SPF)
Bit depth : 32 bits
Compression mode : Lossy
Delay relative to video : 30 ms
Stream size : 262 MiB (12%)
Service kind : Complete Main
Default : Yes
Forced : No

Text
ID : 3
Format : ASS
Codec ID : S_TEXT/ASS
Codec ID/Info : Advanced Sub Station Alpha
Duration : 55 min 56 s
Compression mode : Lossless
Writing library : Lavc58.80.100 ssa
Default : No
Forced : No





The Spanish Princess S02E02


The Spanish Princess S02E02


The Spanish Princess S02E02


The Spanish Princess S02E02


The Spanish Princess S02E02

All episodes