Featured TV Shows


The Spanish Princess S02E02

Posted By: Tavaz
1080p (FullHD) / WEBRip IMDb
The Spanish Princess S02E02

The Spanish Princess S02E02
WEBRip | MKV | 1920x1080 | H264 @ 9226 kbps | E-AC-3 @ 640 kbps | 57 min 19 s | 4.03 GiB
Genre: Drama


La preciosa princesa española, Catalina de Aragón, viaja por el linaje real de Inglaterra con un ojo puesto en el trono.

a66d530cb0524608b616fd6773c8bd69.mkv (4.0 GB)



General
Unique ID : 171782475046294669750153342690652783378 (0x813C19EC420D374CBE965681E25B0312)
Complete name : ./a66d530cb0524608b616fd6773c8bd69.mkv
Format : Matroska
Format version : Version 4 / Version 2
File size : 4.03 GiB
Duration : 57 min 19 s
Overall bit rate : 10.1 Mb/s
Writing application : Lavf58.42.100
Writing library : Lavf58.42.100
ErrorDetectionType : Per level 1

Video
ID : 1
Format : AVC
Format/Info : Advanced Video Codec
Format profile : High@L4
Format settings : CABAC / 4 Ref Frames
Format settings, CABAC : Yes
Format settings, RefFrames : 4 frames
Codec ID : V_MPEG4/ISO/AVC
Duration : 57 min 19 s
Bit rate mode : Constant
Bit rate : 9 226 kb/s
Nominal bit rate : 10 000 kb/s
Width : 1 920 pixels
Height : 1 080 pixels
Display aspect ratio : 16:9
Frame rate mode : Constant
Frame rate : 23.976 (24000/1001) FPS
Color space : YUV
Chroma subsampling : 4:2:0
Bit depth : 8 bits
Scan type : Progressive
Bits/(Pixel*Frame) : 0.186
Stream size : 3.69 GiB (92%)
Default : Yes
Forced : No
Color range : Limited
Color primaries : BT.709
Transfer characteristics : BT.709
Matrix coefficients : BT.709

Audio
ID : 2
Format : E-AC-3
Format/Info : Enhanced Audio Coding 3
Format settings, Endianness : Big
Codec ID : A_EAC3
Duration : 57 min 19 s
Bit rate mode : Constant
Bit rate : 640 kb/s
Channel(s) : 6 channels
Channel positions : Front: L C R, Side: L R, LFE
Sampling rate : 48.0 kHz
Frame rate : 187.500 FPS (256 SPF)
Bit depth : 32 bits
Compression mode : Lossy
Delay relative to video : 30 ms
Stream size : 262 MiB (6%)
Service kind : Complete Main
Default : Yes
Forced : No

Text
ID : 3
Format : ASS
Codec ID : S_TEXT/ASS
Codec ID/Info : Advanced Sub Station Alpha
Duration : 55 min 56 s
Compression mode : Lossless
Writing library : Lavc58.80.100 ssa
Default : No
Forced : No





The Spanish Princess S02E02


The Spanish Princess S02E02


The Spanish Princess S02E02


The Spanish Princess S02E02


The Spanish Princess S02E02

All episodes