Teen Titans Go! S05E24

Posted By: Tavaz
1080p (FullHD) / WEB-DL IMDb
Teen Titans Go! S05E24

Teen Titans Go! S05E24
WEB-DL | MKV | 1912x1072 | English | H264 @ 5262 kbps | AAC @ 125 kbps | 11 min 11 s | 431 MiB
Subtitles: English
Genre: Animazione, Commedia

Robin, Starfire, Raven, Beast Boy and Cyborg return in all-new, comedic adventures. They may be super heroes who save the world every day … but somebody still has to do the laundry!

ad7f1f0b45d3464d8ea0b992c6202f9e.mkv (431.2 MB)



General
Unique ID : 334146043069636785937631429774094081618 (0xFB622FE030E086440D38F50B531F9E52)
Complete name : ./ad7f1f0b45d3464d8ea0b992c6202f9e.mkv
Format : Matroska
Format version : Version 4 / Version 2
File size : 431 MiB
Duration : 11 min 11 s
Overall bit rate : 5 390 kb/s
Encoded date : UTC 2019-03-12 21:54:00
Writing application : mkvmerge v31.0.0 ('Dolores In A Shoestand') 64-bit
Writing library : libebml v1.3.6 + libmatroska v1.4.9

Video
ID : 1
Format : AVC
Format/Info : Advanced Video Codec
Format profile : High@L4
Format settings : CABAC / 4 Ref Frames
Format settings, CABAC : Yes
Format settings, RefFrames : 4 frames
Codec ID : V_MPEG4/ISO/AVC
Duration : 11 min 11 s
Bit rate : 5 262 kb/s
Width : 1 912 pixels
Height : 1 072 pixels
Display aspect ratio : 16:9
Frame rate mode : Constant
Frame rate : 23.976 (24000/1001) FPS
Color space : YUV
Chroma subsampling : 4:2:0
Bit depth : 8 bits
Scan type : Progressive
Bits/(Pixel*Frame) : 0.107
Stream size : 421 MiB (98%)
Language : English
Default : Yes
Forced : No
Color range : Limited
Color primaries : BT.709
Transfer characteristics : BT.709
Matrix coefficients : BT.709

Audio
ID : 2
Format : AAC
Format/Info : Advanced Audio Codec
Format profile : LC
Codec ID : A_AAC-2
Duration : 11 min 10 s
Bit rate : 126 kb/s
Channel(s) : 2 channels
Channel positions : Front: L R
Sampling rate : 48.0 kHz
Frame rate : 46.875 FPS (1024 SPF)
Compression mode : Lossy
Delay relative to video : -42 ms
Stream size : 10.1 MiB (2%)
Language : English
Default : Yes
Forced : No

Text
ID : 3
Format : UTF-8
Codec ID : S_TEXT/UTF8
Codec ID/Info : UTF-8 Plain Text
Duration : 10 min 51 s
Bit rate : 92 b/s
Count of elements : 253
Stream size : 7.38 KiB (0%)
Language : English
Default : Yes
Forced : No





Teen Titans Go! S05E24


Teen Titans Go! S05E24


Teen Titans Go! S05E24


Teen Titans Go! S05E24


Teen Titans Go! S05E24

All episodes