Featured TV Shows


Station 19 S03E10

Posted By: Tavaz
720p (HD) / WEBRip IMDb
Station 19 S03E10

Station 19 S03E10
WEBRip | MKV | 1280x720 | English | H264 @ 5134 kbps | E-AC-3 @ 640 kbps | 43 min 3 s | 1.74 GiB
Subtitles: Deutsch, English
Genre: Drama


A group of heroic firefighters at Seattle Fire Station 19—from captain to newest recruit—risk their lives and hearts both in the line of duty and off the clock. These brave men and women are like family, literally and figuratively, and together they put their own lives in jeopardy as first responders to save the lives of others.

147cee6ab3a14296be557c80cc534bf4.mkv (1.7 GB)



General
Unique ID : 230288353820515774994912360457544293188 (0xAD3FEC741B7A9C1A7E868D93E0125B44)
Complete name : ./147cee6ab3a14296be557c80cc534bf4.mkv
Format : Matroska
Format version : Version 4 / Version 2
File size : 1.74 GiB
Duration : 43 min 3 s
Overall bit rate : 5 777 kb/s
Movie name : Station.19.S03E10.720p.WEB.H264-iNSiDiOUS
Encoded date : UTC 2020-03-26 23:23:01
Writing application : mkvmerge v37.0.0 ('Leave It') 64-bit
Writing library : libebml v1.3.9 + libmatroska v1.5.2

Video
ID : 1
Format : AVC
Format/Info : Advanced Video Codec
Format profile : High@L3.1
Format settings : CABAC / 4 Ref Frames
Format settings, CABAC : Yes
Format settings, RefFrames : 4 frames
Codec ID : V_MPEG4/ISO/AVC
Duration : 43 min 3 s
Bit rate mode : Constant
Bit rate : 5 134 kb/s
Nominal bit rate : 6 000 kb/s
Width : 1 280 pixels
Height : 720 pixels
Display aspect ratio : 16:9
Frame rate mode : Constant
Frame rate : 23.976 (24000/1001) FPS
Color space : YUV
Chroma subsampling : 4:2:0
Bit depth : 8 bits
Scan type : Progressive
Bits/(Pixel*Frame) : 0.232
Stream size : 1.54 GiB (89%)
Default : Yes
Forced : No
Color range : Limited
Color primaries : BT.709
Transfer characteristics : BT.709
Matrix coefficients : BT.709

Audio
ID : 2
Format : E-AC-3
Format/Info : Enhanced Audio Coding 3
Format settings, Endianness : Big
Codec ID : A_EAC3
Duration : 43 min 3 s
Bit rate mode : Constant
Bit rate : 640 kb/s
Channel(s) : 6 channels
Channel positions : Front: L C R, Side: L R, LFE
Sampling rate : 48.0 kHz
Frame rate : 187.500 FPS (256 SPF)
Compression mode : Lossy
Stream size : 197 MiB (11%)
Language : English
Service kind : Complete Main
Default : No
Forced : No

Text #1
ID : 3
Format : UTF-8
Codec ID : S_TEXT/UTF8
Codec ID/Info : UTF-8 Plain Text
Duration : 42 min 53 s
Bit rate : 104 b/s
Count of elements : 1127
Stream size : 32.9 KiB (0%)
Language : English
Default : No
Forced : No

Text #2
ID : 4
Format : UTF-8
Codec ID : S_TEXT/UTF8
Codec ID/Info : UTF-8 Plain Text
Duration : 40 min 47 s
Bit rate : 96 b/s
Count of elements : 657
Stream size : 28.8 KiB (0%)
Language : German
Default : No
Forced : No





Station 19 S03E10


Station 19 S03E10


Station 19 S03E10


Station 19 S03E10


Station 19 S03E10

All episodes