Station 19 S02E09

Posted By: Tavaz
1080p (FullHD) / WEBRip IMDb
Station 19 S02E09

Station 19 S02E09
WEBRip | MKV | 1920x1080 | English | H264 @ 5458 kbps | AAC @ 63 kbps | 43 min 2 s | 1.66 GiB
Genre: Drama

A group of heroic firefighters at Seattle Fire Station 19—from captain to newest recruit—risk their lives and hearts both in the line of duty and off the clock. These brave men and women are like family, literally and figuratively, and together they put their own lives in jeopardy as first responders to save the lives of others.

station.19.s02e09.1080p.web.h264-tbs.mkv (1.7 GB)



General
Unique ID : 170526483031752754676225675188516587328 (0x804A34BC4C1EB934BA5D171EE5768740)
Complete name : ./station.19.s02e09.1080p.web.h264-tbs.mkv
Format : Matroska
Format version : Version 4 / Version 2
File size : 1.66 GiB
Duration : 43 min 2 s
Overall bit rate : 5 524 kb/s
Encoded date : UTC 2019-03-15 09:02:23
Writing application : mkvmerge v31.0.0 ('Dolores In A Shoestand') 64-bit
Writing library : libebml v1.3.6 + libmatroska v1.4.9

Video
ID : 1
Format : AVC
Format/Info : Advanced Video Codec
Format profile : High@L4
Format settings : CABAC / 4 Ref Frames
Format settings, CABAC : Yes
Format settings, RefFrames : 4 frames
Codec ID : V_MPEG4/ISO/AVC
Duration : 43 min 2 s
Bit rate : 5 458 kb/s
Width : 1 920 pixels
Height : 1 080 pixels
Display aspect ratio : 16:9
Frame rate mode : Constant
Frame rate : 23.976 (24000/1001) FPS
Color space : YUV
Chroma subsampling : 4:2:0
Bit depth : 8 bits
Scan type : Progressive
Bits/(Pixel*Frame) : 0.110
Stream size : 1.64 GiB (99%)
Language : English
Default : Yes
Forced : No

Audio
ID : 2
Format : AAC
Format/Info : Advanced Audio Codec
Format profile : HE-AAC / LC
Format settings : Explicit
Codec ID : A_AAC-2
Duration : 43 min 2 s
Bit rate : 64.0 kb/s
Channel(s) : 2 channels
Channel positions : Front: L R
Sampling rate : 48.0 kHz / 24.0 kHz
Frame rate : 23.438 FPS (1024 SPF)
Compression mode : Lossy
Stream size : 19.7 MiB (1%)
Default : Yes
Forced : No





Station 19 S02E09


Station 19 S02E09


Station 19 S02E09


Station 19 S02E09


Station 19 S02E09

All episodes