Star vs. the Forces of Evil S04E18

Posted By: Tavaz
1080p (FullHD) / WEB-DL IMDb
Star vs. the Forces of Evil S04E18

Star vs. the Forces of Evil S04E18
WEB-DL | MKV | 1920x1080 | English | H264 @ 2007 kbps | E-AC-3 @ 224 kbps | 11 min 9 s | 178 MiB
Subtitles: English
Genre: Animation, Comedy


Intergalactic warrior Star Butterfly arrives on Earth to live with the Diaz family. She continues to battle villains throughout the universe and high school, mainly to protect her extremely powerful wand, an object that still confuses her.

144fbfd072954d43b7ead26960569b31.mkv (178.2 MB)



General
Unique ID : 54385953058268508340273674954225472059 (0x28EA5A8292DAC0E8F636802F30D7D23B)
Complete name : ./144fbfd072954d43b7ead26960569b31.mkv
Format : Matroska
Format version : Version 4 / Version 2
File size : 178 MiB
Duration : 11 min 9 s
Overall bit rate : 2 233 kb/s
Encoded date : UTC 2019-04-15 12:23:39
Writing application : mkvmerge v33.1.0 ('Primrose') 64-bit
Writing library : libebml v1.3.7 + libmatroska v1.5.0

Video
ID : 1
Format : AVC
Format/Info : Advanced Video Codec
Format profile : High@L4
Format settings : CABAC / 4 Ref Frames
Format settings, CABAC : Yes
Format settings, RefFrames : 4 frames
Codec ID : V_MPEG4/ISO/AVC
Duration : 11 min 9 s
Bit rate : 2 007 kb/s
Width : 1 920 pixels
Height : 1 080 pixels
Display aspect ratio : 16:9
Frame rate mode : Constant
Frame rate : 23.976 (24000/1001) FPS
Color space : YUV
Chroma subsampling : 4:2:0
Bit depth : 8 bits
Scan type : Progressive
Bits/(Pixel*Frame) : 0.040
Stream size : 160 MiB (90%)
Language : English
Default : Yes
Forced : No
Color range : Limited
Color primaries : BT.709
Transfer characteristics : BT.709
Matrix coefficients : BT.709

Audio
ID : 2
Format : E-AC-3
Format/Info : Enhanced Audio Coding 3
Format settings, Endianness : Big
Codec ID : A_EAC3
Duration : 11 min 9 s
Bit rate mode : Constant
Bit rate : 224 kb/s
Channel(s) : 2 channels
Channel positions : Front: L R
Sampling rate : 48.0 kHz
Frame rate : 187.500 FPS (256 SPF)
Compression mode : Lossy
Stream size : 17.9 MiB (10%)
Language : English
Service kind : Complete Main
Default : Yes
Forced : No

Text
ID : 3
Format : UTF-8
Codec ID : S_TEXT/UTF8
Codec ID/Info : UTF-8 Plain Text
Duration : 11 min 9 s
Bit rate : 100 b/s
Count of elements : 243
Stream size : 8.19 KiB (0%)
Title : SDH
Language : English
Default : No
Forced : No





Star vs. the Forces of Evil S04E18


Star vs. the Forces of Evil S04E18


Star vs. the Forces of Evil S04E18


Star vs. the Forces of Evil S04E18


Star vs. the Forces of Evil S04E18

All episodes