Star Wars Resistance S01E18

Posted By: Tavaz
1080p (FullHD) / WEB-DL IMDb
Star Wars Resistance S01E18

Star Wars Resistance S01E18
WEB-DL | MKV | 1920x1080 | English | H264 @ 5100 kbps | AC-3 @ 384 kbps | 22 min 6 s | 868 MiB
Subtitles: English
Genre: Animation

Kazuda Xiono, a young pilot for the Resistance, is tasked with a top secret mission to investigate the First Order, a growing threat in the galaxy.

eb41744538044127844e3bf0bef351c0.mkv (867.7 MB)



General
Unique ID : 49257195109552792519515855945220706761 (0x250E97385D43E0C78A043D7B8CE351C9)
Complete name : ./eb41744538044127844e3bf0bef351c0.mkv
Format : Matroska
Format version : Version 4 / Version 2
File size : 868 MiB
Duration : 22 min 6 s
Overall bit rate : 5 487 kb/s
Movie name : Star.Wars.Resistance.S01E18.1080p.WEB-DL.DD5.1.H264-ION10
Encoded date : UTC 2019-03-12 10:28:49
Writing application : mkvmerge v31.0.0 ('Dolores In A Shoestand') 64-bit
Writing library : libebml v1.3.6 + libmatroska v1.4.9
Cover : Yes
Attachments : small_cover.jpg / small_cover_land.jpg / cover.jpg / cover_land.jpg

Video
ID : 1
Format : AVC
Format/Info : Advanced Video Codec
Format profile : High@L4
Format settings : CABAC / 4 Ref Frames
Format settings, CABAC : Yes
Format settings, RefFrames : 4 frames
Codec ID : V_MPEG4/ISO/AVC
Duration : 22 min 6 s
Bit rate : 5 100 kb/s
Width : 1 920 pixels
Height : 1 080 pixels
Display aspect ratio : 16:9
Frame rate mode : Constant
Frame rate : 23.976 (23976/1000) FPS
Color space : YUV
Chroma subsampling : 4:2:0
Bit depth : 8 bits
Scan type : Progressive
Bits/(Pixel*Frame) : 0.103
Stream size : 807 MiB (93%)
Title : Star.Wars.Resistance.S01E18.1080p.WEB-DL.DD5.1.H264-ION10
Language : English
Default : Yes
Forced : No
Color range : Limited
Color primaries : BT.709
Transfer characteristics : BT.709
Matrix coefficients : BT.709

Audio
ID : 2
Format : AC-3
Format/Info : Audio Coding 3
Format settings, Endianness : Big
Codec ID : A_AC3
Duration : 22 min 6 s
Bit rate mode : Constant
Bit rate : 384 kb/s
Channel(s) : 6 channels
Channel positions : Front: L C R, Side: L R, LFE
Sampling rate : 48.0 kHz
Frame rate : 31.250 FPS (1536 SPF)
Bit depth : 16 bits
Compression mode : Lossy
Delay relative to video : -42 ms
Stream size : 60.7 MiB (7%)
Title : Star.Wars.Resistance.S01E18.1080p.WEB-DL.DD5.1.H264-ION10
Language : English
Service kind : Complete Main
Default : No
Forced : No

Text
ID : 3
Format : UTF-8
Codec ID : S_TEXT/UTF8
Codec ID/Info : UTF-8 Plain Text
Duration : 21 min 26 s
Bit rate : 117 b/s
Count of elements : 496
Stream size : 18.4 KiB (0%)
Language : English
Default : Yes
Forced : No





Star Wars Resistance S01E18


Star Wars Resistance S01E18


Star Wars Resistance S01E18


Star Wars Resistance S01E18


Star Wars Resistance S01E18

All episodes