Featured TV Shows


Star Trek: Picard S01E10

Posted By: Tavaz
1080p (FullHD) / WEBRip IMDb
Star Trek: Picard S01E10

Star Trek: Picard S01E10
WEBRip | MKV | 1920x1080 | Français / English | H264 @ 8927 kbps | E-AC-3 @ 640 kbps | 56 min 36 s | 4.04 GiB
Subtitles: Français, English


Set twenty years after the events of Star Trek Nemesis, we follow the now-retired Admiral Picard into the next chapter of his life.

6d28ff7a313a4a33b96865661a4cc87d.mkv (4.0 GB)



General
Unique ID : 236947846181171708208777888300538717001 (0xB2427EC6DBBE3162B816D9257B4AE349)
Complete name : ./6d28ff7a313a4a33b96865661a4cc87d.mkv
Format : Matroska
Format version : Version 4 / Version 2
File size : 4.04 GiB
Duration : 56 min 36 s
Overall bit rate : 10.2 Mb/s
Encoded date : UTC 2020-03-26 22:43:42
Writing application : mkvmerge v44.0.0 ('Domino') 64-bit
Writing library : libebml v1.3.10 + libmatroska v1.5.2

Video
ID : 1
Format : AVC
Format/Info : Advanced Video Codec
Format profile : High@L4
Format settings : CABAC / 4 Ref Frames
Format settings, CABAC : Yes
Format settings, RefFrames : 4 frames
Codec ID : V_MPEG4/ISO/AVC
Duration : 56 min 36 s
Bit rate mode : Constant
Bit rate : 8 928 kb/s
Nominal bit rate : 10 000 kb/s
Width : 1 920 pixels
Height : 1 080 pixels
Display aspect ratio : 16:9
Frame rate mode : Constant
Frame rate : 23.976 (24000/1001) FPS
Color space : YUV
Chroma subsampling : 4:2:0
Bit depth : 8 bits
Scan type : Progressive
Bits/(Pixel*Frame) : 0.180
Stream size : 3.53 GiB (87%)
Default : Yes
Forced : No
Color range : Limited
Color primaries : BT.709
Transfer characteristics : BT.709
Matrix coefficients : BT.709

Audio #1
ID : 2
Format : E-AC-3
Format/Info : Enhanced Audio Coding 3
Format settings, Endianness : Big
Codec ID : A_EAC3
Duration : 56 min 36 s
Bit rate mode : Constant
Bit rate : 640 kb/s
Channel(s) : 6 channels
Channel positions : Front: L C R, Side: L R, LFE
Sampling rate : 48.0 kHz
Frame rate : 187.500 FPS (256 SPF)
Compression mode : Lossy
Stream size : 259 MiB (6%)
Title : French
Language : French
Service kind : Complete Main
Default : Yes
Forced : No

Audio #2
ID : 3
Format : E-AC-3
Format/Info : Enhanced Audio Coding 3
Format settings, Endianness : Big
Codec ID : A_EAC3
Duration : 56 min 36 s
Bit rate mode : Constant
Bit rate : 640 kb/s
Channel(s) : 6 channels
Channel positions : Front: L C R, Side: L R, LFE
Sampling rate : 48.0 kHz
Frame rate : 187.500 FPS (256 SPF)
Compression mode : Lossy
Stream size : 259 MiB (6%)
Title : English
Language : English
Service kind : Complete Main
Default : No
Forced : No

Text #1
ID : 4
Format : UTF-8
Codec ID : S_TEXT/UTF8
Codec ID/Info : UTF-8 Plain Text
Duration : 55 min 26 s
Bit rate : 58 b/s
Count of elements : 657
Stream size : 23.8 KiB (0%)
Title : French
Language : French
Default : No
Forced : No

Text #2
ID : 5
Format : UTF-8
Codec ID : S_TEXT/UTF8
Codec ID/Info : UTF-8 Plain Text
Duration : 55 min 12 s
Bit rate : 58 b/s
Count of elements : 758
Stream size : 23.5 KiB (0%)
Title : English (SDH)
Language : English
Default : No
Forced : No

Menu
00:00:00.000 : en:1. Amazon Original
00:00:06.000 : en:2. Previously On
00:02:24.000 : en:3. Return to the cube
00:04:34.000 : en:4. Craving freedom
00:06:10.000 : en:5. Opening Credits
00:07:51.000 : en:6. Narek has a plan
00:09:05.000 : en:7. Making repairs to the ship
00:11:25.000 : en:8. The power of self-sacrifice
00:12:13.000 : en:9. Narek makes an offer
00:12:56.000 : en:10. A common enemy
00:14:00.000 : en:11. Agnes asks Dr. Soong for help
00:15:06.000 : en:12. The prophecy of Ganmadan
00:17:30.000 : en:13. War is coming
00:17:48.000 : en:14. Sneaking back in
00:19:14.000 : en:15. Breaking Picard out
00:19:48.000 : en:16. Dr. Soong sees the truth
00:20:14.000 : en:17. Planning to destroy the tower
00:20:30.000 : en:18. Lead by example
00:22:21.000 : en:19. Sutra is no better than a human
00:23:47.000 : en:20. One impossible thing at a time
00:24:20.000 : en:21. Stalling tactics
00:30:43.000 : en:22. Prepare to fight
00:33:06.000 : en:23. Saving each other
00:37:07.000 : en:24. It's all about choice
00:39:40.000 : en:25. Never again
00:42:09.000 : en:26. Grieving together
00:43:01.000 : en:27. A sophisticated simulation
00:49:25.000 : en:28. Another chance
00:55:31.000 : en:29. End Credits





Star Trek: Picard S01E10


Star Trek: Picard S01E10


Star Trek: Picard S01E10


Star Trek: Picard S01E10


Star Trek: Picard S01E10

All episodes