Star Trek: Discovery S02E09

Posted By: Tavaz
1080p (FullHD) / WEBRip IMDb
Star Trek: Discovery S02E09

Star Trek: Discovery S02E09
WEBRip | MKV | 1920x1080 | French / English | H265 @ 5569 kbps | E-AC-3 @ 640 kbps | 53 min 21 s | 2.60 GiB
Subtitles: French, English

Follow the voyages of Starfleet on their missions to discover new worlds and new life forms, and one Starfleet officer who must learn that to truly understand all things alien, you must first understand yourself.

star.trek.discovery.s02e09.internal.multi.1080p.hdr.web.h265-carapils-sample.mkv (45.5 MB)
star.trek.discovery.s02e09.internal.multi.1080p.hdr.web.h265-carapils.mkv (2.6 GB)



General
Unique ID : 202652491220580072976847677366583162511 (0x9875733AB6847CDF954F29C08D93F68F)
Complete name : ./star.trek.discovery.s02e09.internal.multi.1080p.hdr.web.h265-carapils.mkv
Format : Matroska
Format version : Version 4 / Version 2
File size : 2.60 GiB
Duration : 53 min 21 s
Overall bit rate : 6 989 kb/s
Encoded date : UTC 2019-03-15 10:42:33
Writing application : mkvmerge v24.0.0 ('Beyond The Pale') 64-bit
Writing library : libebml v1.3.6 + libmatroska v1.4.9

Video
ID : 1
Format : HEVC
Format/Info : High Efficiency Video Coding
Format profile : Main 10@L4@Main
Codec ID : V_MPEGH/ISO/HEVC
Duration : 53 min 21 s
Bit rate : 5 570 kb/s
Width : 1 920 pixels
Height : 1 080 pixels
Display aspect ratio : 16:9
Frame rate mode : Constant
Frame rate : 23.976 (24000/1001) FPS
Color space : YUV
Chroma subsampling : 4:2:0 (Type 2)
Bit depth : 10 bits
Bits/(Pixel*Frame) : 0.112
Stream size : 2.08 GiB (80%)
Default : Yes
Forced : No
Color range : Limited
Color primaries : BT.2020
Transfer characteristics : PQ
Matrix coefficients : BT.2020 non-constant
Mastering display color primaries : R: x=0.680000 y=0.320000, G: x=0.265000 y=0.690000, B: x=0.150000 y=0.060000, White point: x=0.312700 y=0.329000
Mastering display luminance : min: 0.0020 cd/m2, max: 1000.0000 cd/m2
Maximum Content Light Level : 808 cd/m2
Maximum Frame-Average Light Level : 240 cd/m2

Audio #1
ID : 2
Format : E-AC-3
Format/Info : Enhanced Audio Coding 3
Format settings, Endianness : Big
Codec ID : A_EAC3
Duration : 53 min 21 s
Bit rate mode : Constant
Bit rate : 640 kb/s
Channel(s) : 6 channels
Channel positions : Front: L C R, Side: L R, LFE
Sampling rate : 48.0 kHz
Frame rate : 187.500 FPS (256 SPF)
Compression mode : Lossy
Stream size : 244 MiB (9%)
Language : French
Service kind : Complete Main
Default : Yes
Forced : No

Audio #2
ID : 3
Format : E-AC-3
Format/Info : Enhanced Audio Coding 3
Format settings, Endianness : Big
Codec ID : A_EAC3
Duration : 53 min 21 s
Bit rate mode : Constant
Bit rate : 640 kb/s
Channel(s) : 6 channels
Channel positions : Front: L C R, Side: L R, LFE
Sampling rate : 48.0 kHz
Frame rate : 187.500 FPS (256 SPF)
Compression mode : Lossy
Stream size : 244 MiB (9%)
Language : English
Service kind : Complete Main
Default : No
Forced : No

Text #1
ID : 4
Format : UTF-8
Codec ID : S_TEXT/UTF8
Codec ID/Info : UTF-8 Plain Text
Title : Forced
Language : French
Default : Yes
Forced : Yes

Text #2
ID : 5
Format : UTF-8
Codec ID : S_TEXT/UTF8
Codec ID/Info : UTF-8 Plain Text
Title : French
Language : French
Default : No
Forced : No

Text #3
ID : 6
Format : UTF-8
Codec ID : S_TEXT/UTF8
Codec ID/Info : UTF-8 Plain Text
Title : English (CC)
Language : English
Default : No
Forced : No





Star Trek: Discovery S02E09


Star Trek: Discovery S02E09


Star Trek: Discovery S02E09


Star Trek: Discovery S02E09


Star Trek: Discovery S02E09

All episodes