Star Trek: Discovery S02E09

Posted By: Tavaz
720p (HD) / WEBRip IMDb
Star Trek: Discovery S02E09

Star Trek: Discovery S02E09
WEBRip | MKV | 1280x528 | Polish / English | H264 @ 3093 kbps | AC-3 @ 640 kbps | 53 min 21 s | 1.63 GiB
Subtitles: Polish

Follow the voyages of Starfleet on their missions to discover new worlds and new life forms, and one Starfleet officer who must learn that to truly understand all things alien, you must first understand yourself.

star.trek.discovery.s02e09.polish.720p.webrip.x264-propltv-sample.mkv (30.0 MB)
Star.Trek.Discovery.S02E09.POLISH.720p.WEBRip.x264-ProPLTV.mkv (1.6 GB)



General
Unique ID : 247408394119689728269754406066455515112 (0xBA211F9BE99DD6F198B5388EAB8F0FE8)
Complete name : ./Star.Trek.Discovery.S02E09.POLISH.720p.WEBRip.x264-ProPLTV.mkv
Format : Matroska
Format version : Version 2
File size : 1.63 GiB
Duration : 53 min 21 s
Overall bit rate : 4 375 kb/s
Encoded date : UTC 2019-03-15 12:03:49
Writing application : mkvmerge v29.0.0 ('Like It Or Not') 64-bit
Writing library : libebml v1.3.6 + libmatroska v1.4.9

Video
ID : 1
Format : AVC
Format/Info : Advanced Video Codec
Format profile : High@L4.1
Format settings : CABAC / 5 Ref Frames
Format settings, CABAC : Yes
Format settings, RefFrames : 5 frames
Codec ID : V_MPEG4/ISO/AVC
Duration : 53 min 21 s
Bit rate : 3 093 kb/s
Width : 1 280 pixels
Height : 528 pixels
Display aspect ratio : 2.40:1
Frame rate mode : Constant
Frame rate : 23.976 (24000/1001) FPS
Color space : YUV
Chroma subsampling : 4:2:0
Bit depth : 8 bits
Scan type : Progressive
Bits/(Pixel*Frame) : 0.191
Stream size : 1.15 GiB (71%)
Writing library : x264 core 157 r2935 545de2f
Encoding settings : cabac=1 / ref=5 / deblock=1:-3:-3 / analyse=0x3:0x113 / me=umh / subme=8 / psy=1 / psy_rd=1.00:0.00 / mixed_ref=1 / me_range=16 / chroma_me=1 / trellis=2 / 8x8dct=1 / cqm=0 / deadzone=21,11 / fast_pskip=0 / chroma_qp_offset=-2 / threads=16 / lookahead_threads=2 / sliced_threads=0 / nr=0 / decimate=1 / interlaced=0 / bluray_compat=0 / constrained_intra=0 / bframes=3 / b_pyramid=2 / b_adapt=1 / b_bias=0 / direct=1 / weightb=1 / open_gop=0 / weightp=2 / keyint=240 / keyint_min=23 / scenecut=40 / intra_refresh=0 / rc_lookahead=50 / rc=crf / mbtree=1 / crf=18.0 / qcomp=0.70 / qpmin=0 / qpmax=69 / qpstep=4 / vbv_maxrate=62500 / vbv_bufsize=78125 / crf_max=0.0 / nal_hrd=none / filler=0 / ip_ratio=1.40 / aq=1:1.00
Default : Yes
Forced : No

Audio #1
ID : 2
Format : AC-3
Format/Info : Audio Coding 3
Format settings, Endianness : Big
Codec ID : A_AC3
Duration : 53 min 21 s
Bit rate mode : Constant
Bit rate : 640 kb/s
Channel(s) : 6 channels
Channel positions : Front: L C R, Side: L R, LFE
Sampling rate : 48.0 kHz
Frame rate : 31.250 FPS (1536 SPF)
Bit depth : 16 bits
Compression mode : Lossy
Stream size : 244 MiB (15%)
Language : Polish
Service kind : Complete Main
Default : Yes
Forced : No

Audio #2
ID : 3
Format : AC-3
Format/Info : Audio Coding 3
Format settings, Endianness : Big
Codec ID : A_AC3
Duration : 53 min 21 s
Bit rate mode : Constant
Bit rate : 640 kb/s
Channel(s) : 6 channels
Channel positions : Front: L C R, Side: L R, LFE
Sampling rate : 48.0 kHz
Frame rate : 31.250 FPS (1536 SPF)
Bit depth : 16 bits
Compression mode : Lossy
Stream size : 244 MiB (15%)
Language : English
Service kind : Complete Main
Default : No
Forced : No

Text #1
ID : 4
Format : UTF-8
Codec ID : S_TEXT/UTF8
Codec ID/Info : UTF-8 Plain Text
Duration : 37 min 51 s
Bit rate : 0 b/s
Count of elements : 5
Stream size : 83.0 Bytes (0%)
Title : Forced
Language : Polish
Default : Yes
Forced : Yes

Text #2
ID : 5
Format : UTF-8
Codec ID : S_TEXT/UTF8
Codec ID/Info : UTF-8 Plain Text
Duration : 52 min 43 s
Bit rate : 60 b/s
Count of elements : 783
Stream size : 23.4 KiB (0%)
Title : Polish
Language : Polish
Default : No
Forced : No





Star Trek: Discovery S02E09


Star Trek: Discovery S02E09


Star Trek: Discovery S02E09


Star Trek: Discovery S02E09


Star Trek: Discovery S02E09

All episodes