Featured TV Shows


Pup Academy S01E16

Posted By: Tavaz
1080p (FullHD) / WEB-DL IMDb
Pup Academy S01E16

Pup Academy S01E16
WEB-DL | MKV | 1920x1080 | English | H264 @ 5776 kbps | E-AC-3 @ 640 kbps | 24 min 28 s | 1.10 GiB
Subtitles: Deutsch, Magyar, Français, Română, English
Genre: Comedy


Welcome to a secret world where pups learn to be a human's best friend. Follow three unlikely puppies - and their human friends - as they work together to discover the power of friendship and create everlasting bonds between dogs and humans.

424ac11987274b8081cc415b86e96b0f.mkv (1.1 GB)



General
Unique ID : 190072757499351355767224979060499949523 (0x8EFEAE789EE48A093248C5D0EA7C27D3)
Complete name : ./424ac11987274b8081cc415b86e96b0f.mkv
Format : Matroska
Format version : Version 4 / Version 2
File size : 1.10 GiB
Duration : 24 min 28 s
Overall bit rate mode : Variable
Overall bit rate : 6 420 kb/s
Encoded date : UTC 2020-10-14 17:29:08
Writing application : mkvmerge v38.0.0 ('The Silent Type') 64-bit
Writing library : libebml v1.3.9 + libmatroska v1.5.2

Video
ID : 1
Format : AVC
Format/Info : Advanced Video Codec
Format profile : Main@L4
Format settings : CABAC / 3 Ref Frames
Format settings, CABAC : Yes
Format settings, RefFrames : 3 frames
Codec ID : V_MPEG4/ISO/AVC
Duration : 24 min 28 s
Bit rate mode : Variable
Bit rate : 5 777 kb/s
Nominal bit rate : 6 190 kb/s
Maximum bit rate : 9 285 kb/s
Width : 1 920 pixels
Height : 1 080 pixels
Display aspect ratio : 16:9
Frame rate mode : Constant
Frame rate : 23.976 (24000/1001) FPS
Color space : YUV
Chroma subsampling : 4:2:0
Bit depth : 8 bits
Scan type : Progressive
Bits/(Pixel*Frame) : 0.116
Stream size : 1 011 MiB (90%)
Writing library : x264 core 148 r2721 6d200cf
Encoding settings : cabac=1 / ref=3 / deblock=1:0:0 / analyse=0x1:0x111 / me=umh / subme=10 / psy=1 / psy_rd=1.00:0.00 / mixed_ref=1 / me_range=24 / chroma_me=1 / trellis=2 / 8x8dct=0 / cqm=0 / deadzone=21,11 / fast_pskip=1 / chroma_qp_offset=-2 / threads=6 / lookahead_threads=1 / sliced_threads=0 / nr=0 / decimate=1 / interlaced=0 / bluray_compat=0 / stitchable=1 / constrained_intra=0 / bframes=2 / b_pyramid=0 / b_adapt=2 / b_bias=0 / direct=3 / weightb=1 / open_gop=0 / weightp=2 / keyint=250 / keyint_min=23 / scenecut=0 / intra_refresh=0 / rc_lookahead=48 / rc=2pass / mbtree=1 / bitrate=6190 / ratetol=1.0 / qcomp=0.50 / qpmin=6 / qpmax=51 / qpstep=4 / cplxblur=20.0 / qblur=0.5 / vbv_maxrate=9285 / vbv_bufsize=12380 / nal_hrd=vbr / filler=0 / ip_ratio=1.40 / aq=1:1.00
Default : Yes
Forced : No

Audio
ID : 2
Format : E-AC-3
Format/Info : Enhanced Audio Coding 3
Format settings, Endianness : Big
Codec ID : A_EAC3
Duration : 24 min 28 s
Bit rate mode : Constant
Bit rate : 640 kb/s
Channel(s) : 6 channels
Channel positions : Front: L C R, Side: L R, LFE
Sampling rate : 48.0 kHz
Frame rate : 187.500 FPS (256 SPF)
Compression mode : Lossy
Stream size : 112 MiB (10%)
Language : English
Service kind : Complete Main
Default : Yes
Forced : No

Text #1
ID : 3
Format : UTF-8
Codec ID : S_TEXT/UTF8
Codec ID/Info : UTF-8 Plain Text
Duration : 13 min 18 s
Bit rate : 6 b/s
Count of elements : 19
Stream size : 662 Bytes (0%)
Title : Forced
Language : English
Default : Yes
Forced : Yes

Text #2
ID : 4
Format : UTF-8
Codec ID : S_TEXT/UTF8
Codec ID/Info : UTF-8 Plain Text
Duration : 22 min 2 s
Bit rate : 74 b/s
Count of elements : 440
Stream size : 12.1 KiB (0%)
Language : English
Default : No
Forced : No

Text #3
ID : 5
Format : UTF-8
Codec ID : S_TEXT/UTF8
Codec ID/Info : UTF-8 Plain Text
Duration : 21 min 54 s
Bit rate : 89 b/s
Count of elements : 502
Stream size : 14.4 KiB (0%)
Title : SDH
Language : English
Default : No
Forced : No

Text #4
ID : 6
Format : UTF-8
Codec ID : S_TEXT/UTF8
Codec ID/Info : UTF-8 Plain Text
Duration : 22 min 31 s
Bit rate : 57 b/s
Count of elements : 421
Stream size : 9.50 KiB (0%)
Language : German
Default : No
Forced : No

Text #5
ID : 7
Format : UTF-8
Codec ID : S_TEXT/UTF8
Codec ID/Info : UTF-8 Plain Text
Duration : 21 min 53 s
Bit rate : 95 b/s
Count of elements : 442
Stream size : 15.4 KiB (0%)
Language : French
Default : No
Forced : No

Text #6
ID : 8
Format : UTF-8
Codec ID : S_TEXT/UTF8
Codec ID/Info : UTF-8 Plain Text
Duration : 22 min 33 s
Bit rate : 59 b/s
Count of elements : 419
Stream size : 9.83 KiB (0%)
Language : Hungarian
Default : No
Forced : No

Text #7
ID : 9
Format : UTF-8
Codec ID : S_TEXT/UTF8
Codec ID/Info : UTF-8 Plain Text
Duration : 22 min 34 s
Bit rate : 66 b/s
Count of elements : 402
Stream size : 11.0 KiB (0%)
Language : Romanian
Default : No
Forced : No





Pup Academy S01E16


Pup Academy S01E16


Pup Academy S01E16


Pup Academy S01E16


Pup Academy S01E16

All episodes