Featured TV Shows


Primal S01E02

Posted By: Tavaz
1080p (FullHD) / WEB-DL IMDb
Primal S01E02

Primal S01E02
WEB-DL | MKV | 1920x1080 | H264 @ 4592 kbps | E-AC-3 @ 640 kbps | 20 min 40 s | 789 MiB
Genre: Animation


A caveman forms a bond with a dinosaur as they struggle to survive in a hostile world.

cda136c5484a4adc8ef619a43624a782.mkv (789.3 MB)



General
Unique ID : 67373056623135498829363864548196861276 (0x32AF9426F6B70A46369EDB1996B5C55C)
Complete name : ./cda136c5484a4adc8ef619a43624a782.mkv
Format : Matroska
Format version : Version 4 / Version 2
File size : 789 MiB
Duration : 20 min 40 s
Overall bit rate : 5 339 kb/s
Writing application : Lavf57.82.100
Writing library : Lavf57.82.100
ErrorDetectionType : Per level 1

Video
ID : 1
Format : AVC
Format/Info : Advanced Video Codec
Format profile : High@L4
Format settings : CABAC / 4 Ref Frames
Format settings, CABAC : Yes
Format settings, RefFrames : 4 frames
Codec ID : V_MPEG4/ISO/AVC
Duration : 20 min 40 s
Bit rate mode : Constant
Bit rate : 4 592 kb/s
Nominal bit rate : 10 000 kb/s
Width : 1 920 pixels
Height : 1 080 pixels
Display aspect ratio : 16:9
Frame rate mode : Constant
Frame rate : 23.976 (24000/1001) FPS
Color space : YUV
Chroma subsampling : 4:2:0
Bit depth : 8 bits
Scan type : Progressive
Bits/(Pixel*Frame) : 0.092
Stream size : 679 MiB (86%)
Default : Yes
Forced : No
Color range : Limited
Color primaries : BT.709
Transfer characteristics : BT.709
Matrix coefficients : BT.709

Audio
ID : 2
Format : E-AC-3
Format/Info : Enhanced Audio Coding 3
Format settings, Endianness : Big
Codec ID : A_EAC3
Duration : 20 min 40 s
Bit rate mode : Constant
Bit rate : 640 kb/s
Channel(s) : 6 channels
Channel positions : Front: L C R, Side: L R, LFE
Sampling rate : 48.0 kHz
Frame rate : 187.500 FPS (256 SPF)
Bit depth : 32 bits
Compression mode : Lossy
Stream size : 94.6 MiB (12%)
Service kind : Complete Main
Default : Yes
Forced : No

Text
ID : 3
Format : ASS
Codec ID : S_TEXT/ASS
Codec ID/Info : Advanced Sub Station Alpha
Duration : 20 min 34 s
Compression mode : Lossless
Writing library : Lavc57.106.101 ssa
Default : No
Forced : No





Primal S01E02


Primal S01E02


Primal S01E02


Primal S01E02


Primal S01E02

All episodes