Featured TV Shows


POSE S01E08

Posted By: Tavaz
n/a / n/a IMDb
POSE S01E08

POSE S01E08
WEB-DL | MKV | 1920x1080 | English | H264 @ 6525 kbps | E-AC-3 @ 640 kbps | 57 min 56 s | 2.90 GiB
Subtitles: English
Genre: Drama

A dance musical that explores the juxtaposition of several segments of 1980s life and society in New York: the ball culture world, the rise of the luxury Trump-era universe and the downtown social and literary scene.

9047a59b9f034a2ba7f3b4997ee03241.mkv (2.9 GB)



General
Unique ID : 47882263141466198226527809880919064328 (0x2405C9D7220744E25D26CC14DD273F08)
Complete name : ./9047a59b9f034a2ba7f3b4997ee03241.mkv
Format : Matroska
Format version : Version 4 / Version 2
File size : 2.90 GiB
Duration : 57 min 56 s
Overall bit rate : 7 168 kb/s
Encoded date : UTC 2018-07-23 10:42:54
Writing application : mkvmerge v15.0.0 ('Duel with the Devil') 64-bit
Writing library : libebml v1.3.5 + libmatroska v1.4.5

Video
ID : 1
Format : AVC
Format/Info : Advanced Video Codec
Format profile : High@L4
Format settings : CABAC / 4 Ref Frames
Format settings, CABAC : Yes
Format settings, RefFrames : 4 frames
Codec ID : V_MPEG4/ISO/AVC
Duration : 57 min 56 s
Bit rate : 6 525 kb/s
Width : 1 920 pixels
Height : 1 080 pixels
Display aspect ratio : 16:9
Frame rate mode : Constant
Frame rate : 23.976 (24000/1001) FPS
Color space : YUV
Chroma subsampling : 4:2:0
Bit depth : 8 bits
Scan type : Progressive
Bits/(Pixel*Frame) : 0.131
Stream size : 2.64 GiB (91%)
Default : Yes
Forced : No
Color range : Limited
Color primaries : BT.709
Transfer characteristics : BT.709
Matrix coefficients : BT.709

Audio
ID : 2
Format : E-AC-3
Format/Info : Enhanced Audio Coding 3
Format settings, Endianness : Big
Codec ID : A_EAC3
Duration : 57 min 56 s
Bit rate mode : Constant
Bit rate : 640 kb/s
Channel(s) : 6 channels
Channel positions : Front: L C R, Side: L R, LFE
Sampling rate : 48.0 kHz
Frame rate : 187.500 FPS (256 SPF)
Compression mode : Lossy
Stream size : 265 MiB (9%)
Language : English
Service kind : Complete Main
Default : Yes
Forced : No

Text #1
ID : 3
Format : UTF-8
Codec ID : S_TEXT/UTF8
Codec ID/Info : UTF-8 Plain Text
Duration : 57 min 52 s
Bit rate : 75 b/s
Count of elements : 1031
Stream size : 31.8 KiB (0%)
Language : English
Default : No
Forced : No

Text #2
ID : 4
Format : UTF-8
Codec ID : S_TEXT/UTF8
Codec ID/Info : UTF-8 Plain Text
Duration : 57 min 52 s
Bit rate : 79 b/s
Count of elements : 1083
Stream size : 33.6 KiB (0%)
Title : SDH
Language : English
Default : No
Forced : No





POSE S01E08


POSE S01E08


POSE S01E08


POSE S01E08


POSE S01E08

All episodes