Please register here if you want to download anything!

If domain in your address bar is different from the list below
PLEASE LEAVE THAT SITE IMMEDIATELY
❗IT'S A DANGEROUS FAKE❗



Spicy Magazines for Men! ;-)

Featured TV Shows


POSE S01E03

Posted By: Tavaz
1080p (FullHD) / HDTV IMDb
POSE S01E03

POSE S01E03
HDTV | MKV | 1920x1080 | French / English | H264 @ 7711 kbps | E-AC-3 @ 96 kbps | 57 min 0 s | 3.15 GiB
Subtitles: French
Genre: Drama

A dance musical that explores the juxtaposition of several segments of 1980s life and society in New York: the ball culture world, the rise of the luxury Trump-era universe and the downtown social and literary scene.

1dc5b6a2ab54402396ed62a27f085b9f.mkv (3.1 GB)



General
Unique ID : 174139767530643339286044890132602512947 (0x8302196A631F659A388A4828BA496633)
Complete name : ./1dc5b6a2ab54402396ed62a27f085b9f.mkv
Format : Matroska
Format version : Version 4 / Version 2
File size : 3.15 GiB
Duration : 57 min 0 s
Overall bit rate : 7 905 kb/s
Encoded date : UTC 2018-09-10 15:00:18
Writing application : mkvmerge v26.0.0 ('In The Game') 32-bit
Writing library : libebml v1.3.6 + libmatroska v1.4.9

Video
ID : 1
Format : AVC
Format/Info : Advanced Video Codec
Format profile : High@L4.1
Format settings : CABAC / 4 Ref Frames
Format settings, CABAC : Yes
Format settings, RefFrames : 4 frames
Codec ID : V_MPEG4/ISO/AVC
Duration : 57 min 0 s
Bit rate : 7 711 kb/s
Width : 1 920 pixels
Height : 1 080 pixels
Display aspect ratio : 16:9
Frame rate mode : Constant
Frame rate : 25.000 FPS
Color space : YUV
Chroma subsampling : 4:2:0
Bit depth : 8 bits
Scan type : Progressive
Bits/(Pixel*Frame) : 0.149
Stream size : 3.07 GiB (98%)
Title : Pose S01E03
Writing library : x264 core 155 r2901 7d0ff22
Encoding settings : opencl=1 / cabac=1 / ref=4 / deblock=1:-2:-2 / analyse=0x3:0x133 / me=umh / subme=8 / psy=1 / psy_rd=1.00:0.00 / mixed_ref=1 / me_range=24 / chroma_me=1 / trellis=2 / 8x8dct=1 / cqm=0 / deadzone=21,11 / fast_pskip=0 / chroma_qp_offset=-2 / threads=24 / lookahead_threads=4 / sliced_threads=0 / nr=0 / decimate=1 / interlaced=0 / bluray_compat=0 / constrained_intra=0 / bframes=3 / b_pyramid=2 / b_adapt=2 / b_bias=0 / direct=3 / weightb=1 / open_gop=0 / weightp=2 / keyint=250 / keyint_min=25 / scenecut=40 / intra_refresh=0 / rc_lookahead=60 / rc=crf / mbtree=1 / crf=17.0 / qcomp=0.60 / qpmin=0 / qpmax=69 / qpstep=4 / ip_ratio=1.40 / aq=1:1.00
Language : French
Default : Yes
Forced : No
Color range : Limited
Matrix coefficients : BT.709

Audio #1
ID : 2
Format : E-AC-3
Format/Info : Enhanced Audio Coding 3
Format settings, Endianness : Big
Codec ID : A_EAC3
Duration : 57 min 0 s
Bit rate mode : Constant
Bit rate : 96.0 kb/s
Channel(s) : 2 channels
Channel positions : Front: L R
Sampling rate : 48.0 kHz
Frame rate : 187.500 FPS (256 SPF)
Compression mode : Lossy
Stream size : 39.1 MiB (1%)
Title : Français E-AC3 2.0
Language : French
Service kind : Complete Main
Default : Yes
Forced : No

Audio #2
ID : 3
Format : E-AC-3
Format/Info : Enhanced Audio Coding 3
Format settings, Endianness : Big
Codec ID : A_EAC3
Duration : 57 min 0 s
Bit rate mode : Constant
Bit rate : 96.0 kb/s
Channel(s) : 2 channels
Channel positions : Front: L R
Sampling rate : 48.0 kHz
Frame rate : 187.500 FPS (256 SPF)
Compression mode : Lossy
Stream size : 39.1 MiB (1%)
Title : Anglais E-AC3 2.0
Language : English
Service kind : Complete Main
Default : No
Forced : No

Text
ID : 5
Format : UTF-8
Codec ID : S_TEXT/UTF8
Codec ID/Info : UTF-8 Plain Text
Duration : 54 min 50 s
Bit rate : 57 b/s
Count of elements : 757
Stream size : 23.2 KiB (0%)
Title : Français
Language : French
Default : No
Forced : No





POSE S01E03


POSE S01E03


POSE S01E03


POSE S01E03


POSE S01E03

All episodes