Milo Murphy’s Law S02E27

Posted By: Tavaz
1080p (FullHD) / WEB-DL IMDb
Milo Murphy’s Law S02E27

Milo Murphy’s Law S02E27
WEB-DL | MKV | 1920x1080 | English | H264 @ 2391 kbps | E-AC-3 @ 224 kbps | 11 min 9 s | 209 MiB
Subtitles: English
Genre: Animation, Comedy, Family


Milo Murphy is the personification of Murphy’s Law where anything that can go wrong will go wrong. Suffering from Extreme Hereditary Murphy’s Law condition (EHML), Milo always looks to make the best of the cards he’s been dealt and his endless optimism and enthusiasm can turn any catastrophe into a wild adventure. Together, he and his friends will learn that it’s all about a positive attitude and not to sweat the big stuff… and it’s all big stuff.

Milo.Murphys.Law.S02E27.Look.at.this.Ship.1080p.AMZN.WEB-DL.DD+2.0.H.264-CtrlHD.mkv (208.9 MB)



General
Unique ID : 4686252410839748370429802974713063710 (0x3868A151A4086989320694EE035A91E)
Complete name : ./Milo.Murphys.Law.S02E27.Look.at.this.Ship.1080p.AMZN.WEB-DL.DD+2.0.H.264-CtrlHD.mkv
Format : Matroska
Format version : Version 4 / Version 2
File size : 209 MiB
Duration : 11 min 9 s
Overall bit rate : 2 617 kb/s
Encoded date : UTC 2019-04-14 14:55:56
Writing application : mkvmerge v32.0.0 ('Astral Progressions') 64-bit
Writing library : libebml v1.3.7 + libmatroska v1.5.0

Video
ID : 1
Format : AVC
Format/Info : Advanced Video Codec
Format profile : High@L4
Format settings : CABAC / 4 Ref Frames
Format settings, CABAC : Yes
Format settings, RefFrames : 4 frames
Codec ID : V_MPEG4/ISO/AVC
Duration : 11 min 9 s
Bit rate : 2 391 kb/s
Width : 1 920 pixels
Height : 1 080 pixels
Display aspect ratio : 16:9
Frame rate mode : Constant
Frame rate : 23.976 (23976/1000) FPS
Original frame rate : 23.976 (24000/1001) FPS
Color space : YUV
Chroma subsampling : 4:2:0
Bit depth : 8 bits
Scan type : Progressive
Bits/(Pixel*Frame) : 0.048
Stream size : 191 MiB (91%)
Language : English
Default : No
Forced : No
Color range : Limited
Color primaries : BT.709
Transfer characteristics : BT.709
Matrix coefficients : BT.709

Audio
ID : 2
Format : E-AC-3
Format/Info : Enhanced Audio Coding 3
Format settings, Endianness : Big
Codec ID : A_EAC3
Duration : 11 min 9 s
Bit rate mode : Constant
Bit rate : 224 kb/s
Channel(s) : 2 channels
Channel positions : Front: L R
Sampling rate : 48.0 kHz
Frame rate : 187.500 FPS (256 SPF)
Compression mode : Lossy
Stream size : 17.9 MiB (9%)
Language : English
Service kind : Complete Main
Default : Yes
Forced : No

Text
ID : 3
Format : UTF-8
Codec ID : S_TEXT/UTF8
Codec ID/Info : UTF-8 Plain Text
Duration : 11 min 9 s
Bit rate : 117 b/s
Count of elements : 269
Stream size : 9.60 KiB (0%)
Language : English
Default : Yes
Forced : No





Milo Murphy’s Law S02E27


Milo Murphy’s Law S02E27


Milo Murphy’s Law S02E27


Milo Murphy’s Law S02E27


Milo Murphy’s Law S02E27

All episodes