Featured TV Shows


Marvel's Runaways S03E08

Posted By: Tavaz
1080p (FullHD) / HDTV IMDb
Marvel's Runaways S03E08

Marvel's Runaways S03E08
HDTV | MKV | 1920x1080 | Français / English | H264 @ 4252 kbps | MPEG Audio @ 192 kbps | 41 min 5 s | 1.33 GiB
Subtitles: Français
Genre: Crime, Drama


Every teenager thinks their parents are evil. What if you found out they actually were? Six diverse teenagers who can barely stand each other must unite against a common foe – their parents.

b562ae8dfe7a4e3d98b71b7431e1ac5c.mkv (1.3 GB)



General
Unique ID : 190855673335584211290324789050057381350 (0x8F957733BEC519397D32F268D0C355E6)
Complete name : ./b562ae8dfe7a4e3d98b71b7431e1ac5c.mkv
Format : Matroska
Format version : Version 4 / Version 2
File size : 1.33 GiB
Duration : 41 min 5 s
Overall bit rate : 4 639 kb/s
Encoded date : UTC 2020-03-26 21:48:34
Writing application : mkvmerge v44.0.0 ('Domino') 64-bit
Writing library : libebml v1.3.10 + libmatroska v1.5.2

Video
ID : 1
Format : AVC
Format/Info : Advanced Video Codec
Format profile : High@L4
Format settings : CABAC / 4 Ref Frames
Format settings, CABAC : Yes
Format settings, RefFrames : 4 frames
Codec ID : V_MPEG4/ISO/AVC
Duration : 41 min 5 s
Bit rate : 4 252 kb/s
Width : 1 920 pixels
Height : 1 080 pixels
Display aspect ratio : 16:9
Frame rate mode : Constant
Frame rate : 25.000 FPS
Standard : Component
Color space : YUV
Chroma subsampling : 4:2:0
Bit depth : 8 bits
Scan type : MBAFF
Scan type, store method : Interleaved fields
Scan order : Top Field First
Bits/(Pixel*Frame) : 0.082
Stream size : 1.22 GiB (92%)
Default : Yes
Forced : No
Color range : Limited
Color primaries : BT.709
Transfer characteristics : BT.709
Matrix coefficients : BT.709

Audio #1
ID : 2
Format : MPEG Audio
Format version : Version 1
Format profile : Layer 2
Codec ID : A_MPEG/L2
Codec ID/Hint : MP2
Duration : 41 min 5 s
Bit rate mode : Constant
Bit rate : 192 kb/s
Channel(s) : 2 channels
Sampling rate : 48.0 kHz
Frame rate : 41.667 FPS (1152 SPF)
Compression mode : Lossy
Stream size : 56.4 MiB (4%)
Title : French
Language : French
Default : Yes
Forced : No

Audio #2
ID : 3
Format : MPEG Audio
Format version : Version 1
Format profile : Layer 2
Codec ID : A_MPEG/L2
Codec ID/Hint : MP2
Duration : 41 min 5 s
Bit rate mode : Constant
Bit rate : 192 kb/s
Channel(s) : 2 channels
Sampling rate : 48.0 kHz
Frame rate : 41.667 FPS (1152 SPF)
Compression mode : Lossy
Stream size : 56.4 MiB (4%)
Title : English
Language : English
Default : No
Forced : No

Text
ID : 4
Format : UTF-8
Codec ID : S_TEXT/UTF8
Codec ID/Info : UTF-8 Plain Text
Duration : 40 min 37 s
Bit rate : 60 b/s
Count of elements : 655
Stream size : 18.0 KiB (0%)
Title : French
Language : French
Default : No
Forced : No





Marvel's Runaways S03E08


Marvel's Runaways S03E08


Marvel's Runaways S03E08


Marvel's Runaways S03E08


Marvel's Runaways S03E08

All episodes