Man with a Plan S03E10

Posted By: Tavaz
1080p (FullHD) / WEBRip IMDb
Man with a Plan S03E10

Man with a Plan S03E10
WEBRip | MKV | 1920x1080 | English | H264 @ 12703 kbps | E-AC-3 @ 640 kbps | 20 min 35 s | 1.92 GiB
Subtitles: English
Genre: Comedy


A dad finds out that parenting is harder than he thought after his wife goes back to work and he's left at home to take care of the kids.

Man.With.a.Plan.S03E10.1080p.WEB.H264-AMCON.mkv (1.9 GB)



General
Unique ID : 21657270275830712357227382187016564109 (0x104B09DD59BC209578A9B3A746D3AD8D)
Complete name : ./Man.With.a.Plan.S03E10.1080p.WEB.H264-AMCON.mkv
Format : Matroska
Format version : Version 4 / Version 2
File size : 1.92 GiB
Duration : 20 min 35 s
Overall bit rate : 13.3 Mb/s
Encoded date : UTC 2019-04-16 04:00:37
Writing application : mkvmerge v30.1.0 ('Forever And More') 64-bit
Writing library : libebml v1.3.6 + libmatroska v1.4.9

Video
ID : 1
Format : AVC
Format/Info : Advanced Video Codec
Format profile : High@L4
Format settings : CABAC / 4 Ref Frames
Format settings, CABAC : Yes
Format settings, RefFrames : 4 frames
Codec ID : V_MPEG4/ISO/AVC
Duration : 20 min 35 s
Bit rate : 12.7 Mb/s
Width : 1 920 pixels
Height : 1 080 pixels
Display aspect ratio : 16:9
Frame rate mode : Constant
Frame rate : 24.000 FPS
Color space : YUV
Chroma subsampling : 4:2:0
Bit depth : 8 bits
Scan type : Progressive
Bits/(Pixel*Frame) : 0.255
Stream size : 1.83 GiB (95%)
Language : English
Default : Yes
Forced : No
Color range : Limited
Color primaries : BT.709
Transfer characteristics : BT.709
Matrix coefficients : BT.709

Audio
ID : 2
Format : E-AC-3
Format/Info : Enhanced Audio Coding 3
Format settings, Endianness : Big
Codec ID : A_EAC3
Duration : 20 min 35 s
Bit rate mode : Constant
Bit rate : 640 kb/s
Channel(s) : 6 channels
Channel positions : Front: L C R, Side: L R, LFE
Sampling rate : 48.0 kHz
Frame rate : 187.500 FPS (256 SPF)
Compression mode : Lossy
Stream size : 94.3 MiB (5%)
Language : English
Service kind : Complete Main
Default : Yes
Forced : No

Text
ID : 3
Format : UTF-8
Codec ID : S_TEXT/UTF8
Codec ID/Info : UTF-8 Plain Text
Duration : 20 min 10 s
Bit rate : 93 b/s
Count of elements : 442
Stream size : 13.8 KiB (0%)
Title : English
Language : English
Default : No
Forced : No





Man with a Plan S03E10


Man with a Plan S03E10


Man with a Plan S03E10


Man with a Plan S03E10


Man with a Plan S03E10

All episodes