Featured TV Shows


Kim's Convenience S04E12

Posted By: Tavaz
1080p (FullHD) / WEB-DL IMDb
Kim's Convenience S04E12

Kim's Convenience S04E12
WEB-DL | MKV | 1920x1080 | English | H264 @ 5237 kbps | AC-3 @ 384 kbps | 21 min 53 s | 880 MiB
Subtitles: English
Genre: Commedia


The funny, heartfelt story of The Kims, a Korean-Canadian family, running a convenience store in downtown Toronto. Mr. and Mrs. Kim ('Appa' and 'Umma') immigrated to Toronto in the 80's to set up shop near Regent Park and had two kids, Jung and Janet who are now young adults. However, when Jung was 16, he and Appa had a major falling out involving a physical fight, stolen money and Jung leaving home. Father and son have been estranged since.

dcf4b9f4ee024ac2b74786f7c90cdbad.mkv (880.2 MB)



General
Unique ID : 323121157419078568422490665721157153769 (0xF316DF0BCD84B16E8B7DE2B594E073E9)
Complete name : ./dcf4b9f4ee024ac2b74786f7c90cdbad.mkv
Format : Matroska
Format version : Version 4 / Version 2
File size : 880 MiB
Duration : 21 min 53 s
Overall bit rate : 5 623 kb/s
Movie name : Kim's Convenience - Knife Strife [S04E12] 1080p iT WEB-DL - KiMCHi
Track name/Position : 12
Track name/Total : 13
Encoded date : UTC 2020-03-26 06:07:54
Writing application : mkvmerge v32.0.0 ('Astral Progressions') 64-bit
Writing library : libebml v1.3.7 + libmatroska v1.5.0
IMDB : tt11524496
TMDB : tv/68106
TVDB : 315908

Video
ID : 1
Format : AVC
Format/Info : Advanced Video Codec
Format profile : High@L4
Format settings : CABAC / 4 Ref Frames
Format settings, CABAC : Yes
Format settings, RefFrames : 4 frames
Codec ID : V_MPEG4/ISO/AVC
Duration : 21 min 53 s
Bit rate : 5 237 kb/s
Width : 1 920 pixels
Height : 1 080 pixels
Display aspect ratio : 16:9
Frame rate mode : Constant
Frame rate : 23.976 (24000/1001) FPS
Color space : YUV
Chroma subsampling : 4:2:0
Bit depth : 8 bits
Scan type : Progressive
Bits/(Pixel*Frame) : 0.105
Stream size : 820 MiB (93%)
Language : English
Default : Yes
Forced : No
Color range : Limited
Color primaries : BT.709
Transfer characteristics : BT.709
Matrix coefficients : BT.709

Audio
ID : 2
Format : AC-3
Format/Info : Audio Coding 3
Format settings, Endianness : Big
Codec ID : A_AC3
Duration : 21 min 53 s
Bit rate mode : Constant
Bit rate : 384 kb/s
Channel(s) : 6 channels
Channel positions : Front: L C R, Side: L R, LFE
Sampling rate : 48.0 kHz
Frame rate : 31.250 FPS (1536 SPF)
Bit depth : 16 bits
Compression mode : Lossy
Delay relative to video : -42 ms
Stream size : 60.1 MiB (7%)
Language : English
Service kind : Complete Main
Default : Yes
Forced : No

Text
ID : 3
Format : UTF-8
Codec ID : S_TEXT/UTF8
Codec ID/Info : UTF-8 Plain Text
Duration : 21 min 15 s
Bit rate : 112 b/s
Count of elements : 540
Stream size : 17.5 KiB (0%)
Language : English
Default : No
Forced : No





Kim's Convenience S04E12


Kim's Convenience S04E12


Kim's Convenience S04E12


Kim's Convenience S04E12


Kim's Convenience S04E12

All episodes