Featured TV Shows


Homeland S08E01

Posted By: Tavaz
720p (HD) / WEBRip IMDb
Homeland S08E01

Homeland S08E01
WEBRip | MKV | 1280x720 | English | H264 @ 1730 kbps | E-AC-3 @ 256 kbps | 59 min 22 s | 844 MiB
Genre: Crime, Drama


CIA officer Carrie Mathison is tops in her field despite being bipolar, which makes her volatile and unpredictable. With the help of her long-time mentor Saul Berenson, Carrie fearlessly risks everything, including her personal well-being and even sanity, at every turn.

d1df02a8f2ac428383452d8389d3372d.mkv (844.2 MB)



General
Unique ID : 257620363020517936741862632057041414910 (0xC1CFE08C696562C5E0BB47DB96456AFE)
Complete name : ./d1df02a8f2ac428383452d8389d3372d.mkv
Format : Matroska
Format version : Version 4 / Version 2
File size : 844 MiB
Duration : 59 min 22 s
Overall bit rate : 1 988 kb/s
Encoded date : UTC 2020-02-09 05:00:28
Writing application : mkvmerge v38.0.0 ('The Silent Type') 64-bit
Writing library : libebml v1.3.9 + libmatroska v1.5.2

Video
ID : 1
Format : AVC
Format/Info : Advanced Video Codec
Format profile : High@L3.1
Format settings : CABAC / 5 Ref Frames
Format settings, CABAC : Yes
Format settings, RefFrames : 5 frames
Codec ID : V_MPEG4/ISO/AVC
Duration : 59 min 22 s
Bit rate : 1 730 kb/s
Width : 1 280 pixels
Height : 720 pixels
Display aspect ratio : 16:9
Frame rate mode : Constant
Frame rate : 23.976 (24000/1001) FPS
Color space : YUV
Chroma subsampling : 4:2:0
Bit depth : 8 bits
Scan type : Progressive
Bits/(Pixel*Frame) : 0.078
Stream size : 735 MiB (87%)
Default : Yes
Forced : No

Audio
ID : 2
Format : E-AC-3
Format/Info : Enhanced Audio Coding 3
Format settings, Endianness : Big
Codec ID : A_EAC3
Duration : 59 min 22 s
Bit rate mode : Constant
Bit rate : 256 kb/s
Channel(s) : 6 channels
Channel positions : Front: L C R, Side: L R, LFE
Sampling rate : 48.0 kHz
Frame rate : 187.500 FPS (256 SPF)
Compression mode : Lossy
Stream size : 109 MiB (13%)
Service kind : Complete Main
Default : Yes
Forced : No





Homeland S08E01


Homeland S08E01


Homeland S08E01


Homeland S08E01


Homeland S08E01

All episodes