Featured TV Shows


Homeland S07E12

Posted By: Tavaz
1080p (FullHD) / BDRip IMDb
Homeland S07E12

Homeland S07E12
BluRay Remux | MKV | 1920x1080 | English | H264 @ 18995 kbps | DTS | 1 h 2 min | 9.93 GiB
Subtitles: Swedish, Danish, Spanish, Finnish, English, Japanese, French, Norwegian, Dutch, Italian
Genre: Drama

CIA officer Carrie Mathison is tops in her field despite being bipolar, which makes her volatile and unpredictable. With the help of her long-time mentor Saul Berenson, Carrie fearlessly risks everything, including her personal well-being and even sanity, at every turn.

Homeland.S07E12.Paean.to.the.People.1080p.BluRay.Remux.AVC.DTS-HD.MA.5.1-eXcommunicado=981e5b1f99d051d37ec8217e831a3f73da16e82d.part1.rar (5.2 GB)
Homeland.S07E12.Paean.to.the.People.1080p.BluRay.Remux.AVC.DTS-HD.MA.5.1-eXcommunicado=981e5b1f99d051d37ec8217e831a3f73da16e82d.part2.rar (4.8 GB)



General
Unique ID : 325065248627296020041890870357500313625 (0xF48D4A249BBCF5DC554267D0533F4019)
Complete name : ./72e1ca3c28154b85919b282619c2ad10.mkv
Format : Matroska
Format version : Version 4 / Version 2
File size : 9.93 GiB
Duration : 1 h 2 min
Overall bit rate mode : Variable
Overall bit rate : 22.7 Mb/s
Movie name : Homeland.S07E12.Paean.to.the.People.1080p.BluRay.Remux.AVC.DTS-HD.MA.5.1-eXcommunicado
Encoded date : UTC 2018-09-26 06:48:33
Writing application : mkvmerge v26.0.0 ('In The Game') 64-bit
Writing library : libebml v1.3.6 + libmatroska v1.4.9

Video
ID : 1
Format : AVC
Format/Info : Advanced Video Codec
Format profile : High@L4.1
Format settings : CABAC / 4 Ref Frames
Format settings, CABAC : Yes
Format settings, RefFrames : 4 frames
Codec ID : V_MPEG4/ISO/AVC
Duration : 1 h 2 min
Bit rate mode : Variable
Bit rate : 19.0 Mb/s
Maximum bit rate : 37.0 Mb/s
Width : 1 920 pixels
Height : 1 080 pixels
Display aspect ratio : 16:9
Frame rate mode : Constant
Frame rate : 23.976 (24000/1001) FPS
Color space : YUV
Chroma subsampling : 4:2:0
Bit depth : 8 bits
Scan type : Progressive
Bits/(Pixel*Frame) : 0.382
Stream size : 8.31 GiB (84%)
Title : MPEG-4 AVC Video / 1080p / 23.976 fps / 16:9 / High Profile 4.1
Language : English
Default : Yes
Forced : No

Audio
ID : 2
Format : DTS
Format/Info : Digital Theater Systems
Format profile : MA / Core
Mode : 16
Format settings, Endianness : Big
Codec ID : A_DTS
Duration : 1 h 2 min
Bit rate mode : Variable / Constant
Bit rate : 3 377 kb/s / 1 509 kb/s
Channel(s) : 6 channels
Channel positions : Front: L C R, Side: L R, LFE
Sampling rate : 48.0 kHz
Frame rate : 93.750 FPS (512 SPF)
Bit depth : 24 bits
Compression mode : Lossless / Lossy
Stream size : 1.48 GiB (15%)
Title : DTS-HD Master Audio / 5.1 / 48 kHz / 24-bit
Language : English
Default : Yes
Forced : No

Text #1
ID : 3
Format : PGS
Codec ID : S_HDMV/PGS
Codec ID/Info : Picture based subtitle format used on BDs/HD-DVDs
Duration : 59 min 47 s
Bit rate : 40.5 kb/s
Count of elements : 1726
Stream size : 17.3 MiB (0%)
Title : SDH
Language : English
Default : No
Forced : No

Text #2
ID : 4
Format : PGS
Codec ID : S_HDMV/PGS
Codec ID/Info : Picture based subtitle format used on BDs/HD-DVDs
Duration : 1 h 2 min
Bit rate : 32.0 kb/s
Count of elements : 1316
Stream size : 14.3 MiB (0%)
Language : Danish
Default : No
Forced : No

Text #3
ID : 5
Format : PGS
Codec ID : S_HDMV/PGS
Codec ID/Info : Picture based subtitle format used on BDs/HD-DVDs
Duration : 1 h 2 min
Bit rate : 36.1 kb/s
Count of elements : 1366
Stream size : 16.2 MiB (0%)
Language : Dutch
Default : No
Forced : No

Text #4
ID : 6
Format : PGS
Codec ID : S_HDMV/PGS
Codec ID/Info : Picture based subtitle format used on BDs/HD-DVDs
Duration : 1 h 2 min
Bit rate : 33.0 kb/s
Count of elements : 1364
Stream size : 14.8 MiB (0%)
Language : Finnish
Default : No
Forced : No

Text #5
ID : 7
Format : PGS
Codec ID : S_HDMV/PGS
Codec ID/Info : Picture based subtitle format used on BDs/HD-DVDs
Duration : 1 h 2 min
Bit rate : 35.6 kb/s
Count of elements : 1366
Stream size : 15.9 MiB (0%)
Language : French
Default : No
Forced : No

Text #6
ID : 8
Format : PGS
Codec ID : S_HDMV/PGS
Codec ID/Info : Picture based subtitle format used on BDs/HD-DVDs
Duration : 1 h 2 min
Bit rate : 33.5 kb/s
Count of elements : 1368
Stream size : 15.0 MiB (0%)
Language : Italian
Default : No
Forced : No

Text #7
ID : 9
Format : PGS
Codec ID : S_HDMV/PGS
Codec ID/Info : Picture based subtitle format used on BDs/HD-DVDs
Duration : 1 h 2 min
Bit rate : 19.8 kb/s
Count of elements : 1333
Stream size : 8.85 MiB (0%)
Language : Japanese
Default : No
Forced : No

Text #8
ID : 10
Format : PGS
Codec ID : S_HDMV/PGS
Codec ID/Info : Picture based subtitle format used on BDs/HD-DVDs
Duration : 1 h 2 min
Bit rate : 32.6 kb/s
Count of elements : 1366
Stream size : 14.6 MiB (0%)
Language : Norwegian
Default : No
Forced : No

Text #9
ID : 11
Format : PGS
Codec ID : S_HDMV/PGS
Codec ID/Info : Picture based subtitle format used on BDs/HD-DVDs
Duration : 1 h 2 min
Bit rate : 32.2 kb/s
Count of elements : 1364
Stream size : 14.4 MiB (0%)
Title : Castilian
Language : Spanish
Default : No
Forced : No

Text #10
ID : 12
Format : PGS
Codec ID : S_HDMV/PGS
Codec ID/Info : Picture based subtitle format used on BDs/HD-DVDs
Duration : 1 h 2 min
Bit rate : 34.1 kb/s
Count of elements : 1366
Stream size : 15.2 MiB (0%)
Language : Swedish
Default : No
Forced : No

Menu
00:00:00.000 : en:Chapter 1
00:01:52.779 : en:Chapter 2
00:08:54.409 : en:Chapter 3
00:13:27.140 : en:Chapter 4
00:17:54.740 : en:Chapter 5
00:21:35.461 : en:Chapter 6
00:29:34.731 : en:Chapter 7
00:33:21.249 : en:Chapter 8
00:37:52.520 : en:Chapter 9
00:43:56.092 : en:Chapter 10
00:50:04.335 : en:Chapter 11
00:56:01.400 : en:Chapter 12





Homeland S07E12


Homeland S07E12


Homeland S07E12


Homeland S07E12


Homeland S07E12

All episodes