Hawaii Five-0 S09E08

Posted By: Tavaz
SD / WEBRip IMDb
Hawaii Five-0 S09E08

Hawaii Five-0 S09E08
WEBRip | MKV | 720x404 | German | H264 @ 1298 kbps | AC-3 @ 192 kbps | 41 min 41 s | 445 MiB
Genre: Action, Krimi, Drama

Im Mittelpunkt der Serie steht der hochdekorierte ehemalige Marineoffizier Steve McGarrett, der von der Gouverneurin von Hawaii mit der Bildung einer Sondereinheit zur Bekämpfung des organisierten Verbrechens beauftragt wird. Er rekrutiert den ehemaligen Polizisten Chin Ho Kelly, der nach ungerechtfertigten Bestechungsvorwürfen die Polizei verlassen musste, den Polizisten Danny "Danno" Williams, der seiner geschiedenen Frau und deren Tochter von New Jersey nach Hawaii gefolgt ist, und die junge Polizistin Kona "Kono" Kalakaua, die gerade ihre Ausbildung beendet hat und die Cousine von Chin ist. Sie nennen sich Five-0 und arbeiten gemeinsam an einer Vielzahl unterschiedlicher Kriminalfälle.

S09E07.mkv (408.0 MB)
S09E08.mkv (445.2 MB)



General
Unique ID : 163841368524994362049689357729774904345 (0x7B42B32498AF2F4DBCF2547FC8CB2419)
Complete name : ./es gibt kein bier auf Hawaii S09E07E08 German/S09E08.mkv
Format : Matroska
Format version : Version 4 / Version 2
File size : 445 MiB
Duration : 41 min 41 s
Overall bit rate : 1 493 kb/s
Movie name : Hawaii.Five-0.S09E08.GERMAN.DUBBED.WEBRiP.x264-idTV
Encoded date : UTC 2019-03-14 19:59:53
Writing application : mkvmerge v19.0.0 ('Brave Captain') 64-bit
Writing library : libebml v1.3.5 + libmatroska v1.4.8

Video
ID : 1
Format : AVC
Format/Info : Advanced Video Codec
Format profile : High@L3.1
Format settings : CABAC / 5 Ref Frames
Format settings, CABAC : Yes
Format settings, RefFrames : 5 frames
Codec ID : V_MPEG4/ISO/AVC
Duration : 41 min 41 s
Bit rate : 1 299 kb/s
Width : 720 pixels
Height : 404 pixels
Display aspect ratio : 16:9
Frame rate mode : Constant
Frame rate : 25.000 FPS
Original frame rate : 23.976 (24000/1001) FPS
Color space : YUV
Chroma subsampling : 4:2:0
Bit depth : 8 bits
Scan type : Progressive
Bits/(Pixel*Frame) : 0.179
Stream size : 387 MiB (87%)
Writing library : x264 core 157 r2935M idTV
Encoding settings : cabac=1 / ref=5 / deblock=1:-2:-2 / analyse=0x3:0x133 / me=umh / subme=8 / psy=1 / psy_rd=1.00:0.00 / mixed_ref=1 / me_range=16 / chroma_me=1 / trellis=2 / 8x8dct=1 / cqm=0 / deadzone=21,11 / fast_pskip=0 / chroma_qp_offset=-2 / threads=12 / lookahead_threads=2 / sliced_threads=0 / nr=0 / decimate=1 / interlaced=0 / bluray_compat=0 / constrained_intra=0 / bframes=3 / b_pyramid=2 / b_adapt=1 / b_bias=0 / direct=3 / weightb=1 / open_gop=0 / weightp=2 / keyint=250 / keyint_min=23 / scenecut=40 / intra_refresh=0 / rc_lookahead=50 / rc=crf / mbtree=1 / crf=19.0 / qcomp=0.60 / qpmin=10 / qpmax=51 / qpstep=4 / ip_ratio=1.40 / aq=1:1.00
Language : English
Default : Yes
Forced : No
Color range : Limited
Color primaries : BT.709
Transfer characteristics : BT.709
Matrix coefficients : BT.709

Audio
ID : 2
Format : AC-3
Format/Info : Audio Coding 3
Format settings, Endianness : Big
Codec ID : A_AC3
Duration : 41 min 41 s
Bit rate mode : Constant
Bit rate : 192 kb/s
Channel(s) : 2 channels
Channel positions : Front: L R
Sampling rate : 48.0 kHz
Frame rate : 31.250 FPS (1536 SPF)
Bit depth : 16 bits
Compression mode : Lossy
Stream size : 57.3 MiB (13%)
Language : German
Service kind : Complete Main
Default : Yes
Forced : Yes





Hawaii Five-0 S09E08


Hawaii Five-0 S09E08


Hawaii Five-0 S09E08


Hawaii Five-0 S09E08


Hawaii Five-0 S09E08

All episodes