Featured TV Shows


Grey's Anatomy S16E19

Posted By: Tavaz
720p (HD) / WEBRip IMDb
Grey's Anatomy S16E19

Grey's Anatomy S16E19
WEBRip | MKV | 1280x720 | English | H264 @ 3565 kbps | E-AC-3 @ 640 kbps | 43 min 3 s | 1.27 GiB
Subtitles: English
Genre: Drama


Follows the personal and professional lives of a group of doctors at Seattle’s Grey Sloan Memorial Hospital.

82109c8216a940a294183e723579c021.mkv (1.3 GB)



General
Unique ID : 265596377742030169782670677047165446890 (0xC7D0006F8105D758E61236D36C65EAEA)
Complete name : ./82109c8216a940a294183e723579c021.mkv
Format : Matroska
Format version : Version 4 / Version 2
File size : 1.27 GiB
Duration : 43 min 3 s
Overall bit rate : 4 207 kb/s
Movie name : Greys.Anatomy.S16E19.720p.WEB.H264-iNSiDiOUS
Encoded date : UTC 2020-03-26 23:05:14
Writing application : mkvmerge v37.0.0 ('Leave It') 64-bit
Writing library : libebml v1.3.9 + libmatroska v1.5.2

Video
ID : 1
Format : AVC
Format/Info : Advanced Video Codec
Format profile : High@L3.1
Format settings : CABAC / 4 Ref Frames
Format settings, CABAC : Yes
Format settings, RefFrames : 4 frames
Codec ID : V_MPEG4/ISO/AVC
Duration : 43 min 3 s
Bit rate mode : Constant
Bit rate : 3 565 kb/s
Nominal bit rate : 6 000 kb/s
Width : 1 280 pixels
Height : 720 pixels
Display aspect ratio : 16:9
Frame rate mode : Constant
Frame rate : 23.976 (24000/1001) FPS
Color space : YUV
Chroma subsampling : 4:2:0
Bit depth : 8 bits
Scan type : Progressive
Bits/(Pixel*Frame) : 0.161
Stream size : 1.07 GiB (85%)
Default : Yes
Forced : No
Color range : Limited
Color primaries : BT.709
Transfer characteristics : BT.709
Matrix coefficients : BT.709

Audio
ID : 2
Format : E-AC-3
Format/Info : Enhanced Audio Coding 3
Format settings, Endianness : Big
Codec ID : A_EAC3
Duration : 43 min 3 s
Bit rate mode : Constant
Bit rate : 640 kb/s
Channel(s) : 6 channels
Channel positions : Front: L C R, Side: L R, LFE
Sampling rate : 48.0 kHz
Frame rate : 187.500 FPS (256 SPF)
Compression mode : Lossy
Stream size : 197 MiB (15%)
Language : English
Service kind : Complete Main
Default : No
Forced : No

Text
ID : 3
Format : UTF-8
Codec ID : S_TEXT/UTF8
Codec ID/Info : UTF-8 Plain Text
Duration : 42 min 52 s
Bit rate : 89 b/s
Count of elements : 1073
Stream size : 28.2 KiB (0%)
Language : English
Default : No
Forced : No





Grey's Anatomy S16E19


Grey's Anatomy S16E19


Grey's Anatomy S16E19


Grey's Anatomy S16E19


Grey's Anatomy S16E19

All episodes