Featured TV Shows


Grand Army S01E03

Posted By: Tavaz
1080p (FullHD) / WEBRip IMDb
Grand Army S01E03

Grand Army S01E03
WEBRip | MOV | 1920x1080 | English / Español / Français / Italiano / Deutsch | H264 @ 2124 kbps | AAC @ 127 kbps | 52 min 49 s | 2.49 GiB
Subtitles: Italiano, Español, Français, English, Deutsch
Genre: Drama


Five students at the largest public high school in Brooklyn take on a chaotic world as they fight to succeed, survive, break free and seize the future.

6d383588118940738456134256c66fa1.mkv (2.5 GB)



General
Complete name : ./6d383588118940738456134256c66fa1.mkv
Format : MPEG-4
Format profile : Base Media
Codec ID : isom (isom/iso2/avc1/mp41)
File size : 2.49 GiB
Duration : 52 min 49 s
Overall bit rate mode : Variable
Overall bit rate : 6 738 kb/s
Writing application : Lavf58.18.101
FileExtension_Invalid : mov mp4 m4v m4a m4b m4p 3ga 3gpa 3gpp 3gp 3gpp2 3g2 k3g jpm jpx mqv ismv isma ismt f4a f4b f4v

Video
ID : 13
Format : AVC
Format/Info : Advanced Video Codec
Format profile : Main@L4
Format settings : CABAC / 1 Ref Frames
Format settings, CABAC : Yes
Format settings, RefFrames : 1 frame
Codec ID : avc1
Codec ID/Info : Advanced Video Coding
Duration : 52 min 48 s
Bit rate mode : Variable
Bit rate : 2 125 kb/s
Maximum bit rate : 6 000 kb/s
Width : 1 920 pixels
Height : 1 080 pixels
Display aspect ratio : 16:9
Frame rate mode : Constant
Frame rate : 23.976 FPS
Original frame rate : 29.970 (30000/1001) FPS
Color space : YUV
Chroma subsampling : 4:2:0
Bit depth : 8 bits
Scan type : Progressive
Bits/(Pixel*Frame) : 0.043
Stream size : 802 MiB (32%)
Default : Yes
Alternate group : 12

Audio #1
ID : 1
Format : AAC
Format/Info : Advanced Audio Codec
Format profile : HE-AAC / LC
Format settings : Explicit
Codec ID : mp4a-40-2
Duration : 52 min 49 s
Bit rate mode : Constant
Bit rate : 128 kb/s
Channel(s) : 2 channels
Channel positions : Front: L R
Sampling rate : 48.0 kHz / 24.0 kHz
Frame rate : 23.438 FPS (1024 SPF)
Compression mode : Lossy
Stream size : 48.4 MiB (2%)
Title : allemand
Language : German

Audio #2
ID : 2
Format : AAC
Format/Info : Advanced Audio Codec
Format profile : HE-AAC / LC
Format settings : Explicit
Codec ID : mp4a-40-2
Duration : 52 min 49 s
Bit rate mode : Constant
Bit rate : 128 kb/s
Channel(s) : 2 channels
Channel positions : Front: L R
Sampling rate : 48.0 kHz / 24.0 kHz
Frame rate : 23.438 FPS (1024 SPF)
Compression mode : Lossy
Stream size : 48.4 MiB (2%)
Title : anglais [VO]
Language : English
Default : Yes
Alternate group : 1

Audio #3
ID : 3
Format : AAC
Format/Info : Advanced Audio Codec
Format profile : HE-AAC / LC
Format settings : Explicit
Codec ID : mp4a-40-2
Duration : 52 min 49 s
Bit rate mode : Constant
Bit rate : 128 kb/s
Channel(s) : 2 channels
Channel positions : Front: L R
Sampling rate : 48.0 kHz / 24.0 kHz
Frame rate : 23.438 FPS (1024 SPF)
Compression mode : Lossy
Stream size : 48.4 MiB (2%)
Title : espagnol
Language : Spanish
Default : Yes
Alternate group : 2

Audio #4
ID : 4
Format : AAC
Format/Info : Advanced Audio Codec
Format profile : HE-AAC / LC
Format settings : Explicit
Codec ID : mp4a-40-2
Duration : 52 min 49 s
Bit rate mode : Constant
Bit rate : 128 kb/s
Channel(s) : 2 channels
Channel positions : Front: L R
Sampling rate : 48.0 kHz / 24.0 kHz
Frame rate : 23.438 FPS (1024 SPF)
Compression mode : Lossy
Stream size : 48.4 MiB (2%)
Title : français
Language : French
Default : Yes
Alternate group : 3

Audio #5
ID : 5
Format : AAC
Format/Info : Advanced Audio Codec
Format profile : HE-AAC / LC
Format settings : Explicit
Codec ID : mp4a-40-2
Duration : 52 min 49 s
Bit rate mode : Constant
Bit rate : 128 kb/s
Channel(s) : 2 channels
Channel positions : Front: L R
Sampling rate : 48.0 kHz / 24.0 kHz
Frame rate : 23.438 FPS (1024 SPF)
Compression mode : Lossy
Stream size : 48.4 MiB (2%)
Title : italien
Language : Italian
Default : Yes
Alternate group : 4

Audio #6
ID : 6
Format : E-AC-3
Format/Info : Enhanced Audio Coding 3
Format settings, Endianness : Big
Codec ID : ec-3
Duration : 52 min 49 s
Bit rate mode : Constant
Bit rate : 640 kb/s
Channel(s) : 6 channels
Channel positions : Front: L C R, Side: L R, LFE
Sampling rate : 48.0 kHz
Frame rate : 187.500 FPS (256 SPF)
Bit depth : 16 bits
Compression mode : Lossy
Stream size : 242 MiB (9%)
Title : allemand
Language : German
Service kind : Complete Main
Default : Yes
Alternate group : 5

Audio #7
ID : 7
Format : E-AC-3
Format/Info : Enhanced Audio Coding 3
Format settings, Endianness : Big
Codec ID : ec-3
Duration : 52 min 49 s
Bit rate mode : Constant
Bit rate : 640 kb/s
Channel(s) : 6 channels
Channel positions : Front: L C R, Side: L R, LFE
Sampling rate : 48.0 kHz
Frame rate : 187.500 FPS (256 SPF)
Bit depth : 16 bits
Compression mode : Lossy
Stream size : 242 MiB (9%)
Title : anglais [VO] - Dolby
Language : English
Service kind : Complete Main
Default : Yes
Alternate group : 6

Audio #8
ID : 8
Format : E-AC-3
Format/Info : Enhanced Audio Coding 3
Format settings, Endianness : Big
Codec ID : ec-3
Duration : 52 min 49 s
Bit rate mode : Constant
Bit rate : 640 kb/s
Channel(s) : 6 channels
Channel positions : Front: L C R, Side: L R, LFE
Sampling rate : 48.0 kHz
Frame rate : 187.500 FPS (256 SPF)
Bit depth : 16 bits
Compression mode : Lossy
Stream size : 242 MiB (9%)
Title : espagnol - Dolby
Language : Spanish
Service kind : Complete Main
Default : Yes
Alternate group : 7

Audio #9
ID : 9
Format : E-AC-3
Format/Info : Enhanced Audio Coding 3
Format settings, Endianness : Big
Codec ID : ec-3
Duration : 52 min 49 s
Bit rate mode : Constant
Bit rate : 640 kb/s
Channel(s) : 6 channels
Channel positions : Front: L C R, Side: L R, LFE
Sampling rate : 48.0 kHz
Frame rate : 187.500 FPS (256 SPF)
Bit depth : 16 bits
Compression mode : Lossy
Stream size : 242 MiB (9%)
Title : français - Dolby
Language : French
Service kind : Complete Main
Default : Yes
Alternate group : 8

Audio #10
ID : 10
Format : E-AC-3
Format/Info : Enhanced Audio Coding 3
Format settings, Endianness : Big
Codec ID : ec-3
Duration : 52 min 49 s
Bit rate mode : Constant
Bit rate : 640 kb/s
Channel(s) : 6 channels
Channel positions : Front: L C R, Side: L R, LFE
Sampling rate : 48.0 kHz
Frame rate : 187.500 FPS (256 SPF)
Bit depth : 16 bits
Compression mode : Lossy
Stream size : 242 MiB (9%)
Title : italien - Dolby
Language : Italian
Service kind : Complete Main
Default : Yes
Alternate group : 9

Audio #11
ID : 11
Format : AAC
Format/Info : Advanced Audio Codec
Format profile : HE-AAC / LC
Format settings : Explicit
Codec ID : mp4a-40-2
Duration : 52 min 49 s
Bit rate mode : Constant
Bit rate : 128 kb/s
Channel(s) : 2 channels
Channel positions : Front: L R
Sampling rate : 48.0 kHz / 24.0 kHz
Frame rate : 23.438 FPS (1024 SPF)
Compression mode : Lossy
Stream size : 48.4 MiB (2%)
Title : anglais - Description sonore
Language : English
Default : Yes
Alternate group : 10

Audio #12
ID : 12
Format : E-AC-3
Format/Info : Enhanced Audio Coding 3
Format settings, Endianness : Big
Codec ID : ec-3
Duration : 52 min 49 s
Bit rate mode : Constant
Bit rate : 640 kb/s
Channel(s) : 6 channels
Channel positions : Front: L C R, Side: L R, LFE
Sampling rate : 48.0 kHz
Frame rate : 187.500 FPS (256 SPF)
Bit depth : 16 bits
Compression mode : Lossy
Stream size : 242 MiB (9%)
Title : anglais - Description sonore
Language : English
Service kind : Complete Main
Default : Yes
Alternate group : 11

Text #1
ID : 14
Format : Timed Text
Muxing mode : sbtl
Codec ID : tx3g
Duration : 51 min 13 s
Bit rate mode : Variable
Bit rate : 60 b/s
Stream size : 22.3 KiB (0%)
Title : allemand
Language : German
Default : Yes
Forced : No
Alternate group : 13

Text #2
ID : 15
Format : Timed Text
Muxing mode : sbtl
Codec ID : tx3g
Duration : 51 min 17 s
Bit rate mode : Variable
Bit rate : 59 b/s
Stream size : 22.1 KiB (0%)
Title : espagnol
Language : Spanish
Default : No
Forced : No
Alternate group : 14

Text #3
ID : 16
Format : Timed Text
Muxing mode : sbtl
Codec ID : tx3g
Duration : 51 min 13 s
Bit rate mode : Variable
Bit rate : 61 b/s
Stream size : 22.9 KiB (0%)
Title : français
Language : French
Default : No
Forced : No
Alternate group : 15

Text #4
ID : 17
Format : Timed Text
Muxing mode : sbtl
Codec ID : tx3g
Duration : 51 min 13 s
Bit rate mode : Variable
Bit rate : 56 b/s
Stream size : 20.9 KiB (0%)
Title : italien
Language : Italian
Default : No
Forced : No
Alternate group : 16

Text #5
ID : 18
Format : Timed Text
Muxing mode : sbtl
Codec ID : tx3g
Duration : 51 min 16 s
Bit rate mode : Variable
Bit rate : 86 b/s
Stream size : 32.4 KiB (0%)
Title : anglais
Language : English
Default : No
Forced : No
Alternate group : 17





Grand Army S01E03


Grand Army S01E03


Grand Army S01E03


Grand Army S01E03


Grand Army S01E03

All episodes