Featured TV Shows


Future Man S02E05

Posted By: Tavaz
1080p (FullHD) / WEBRip IMDb
Future Man S02E05

Future Man S02E05
WEBRip | MKV | 1920x1080 | English | H264 @ 5070 kbps | AAC @ 63 kbps | 29 min 36 s | 1.06 GiB
Genre: Comedy

Josh Futturman, a janitor by day/world-ranked gamer by night, is tasked with preventing the extinction of humanity after mysterious visitors from the future proclaim him the key to defeating the imminent super-race invasion.

ea4a125e092149e999a7e7b8c4d8030c.mkv (1.1 GB)



General
Complete name : ./ea4a125e092149e999a7e7b8c4d8030c.mkv
Format : Matroska
Format version : Version 4 / Version 2
File size : 1.06 GiB
Duration : 29 min 36 s
Overall bit rate : 5 136 kb/s
Encoded date : UTC 2019-01-11 05:22:35
Writing application : mkvmerge v29.0.0 ('Like It Or Not') 64-bit
Writing library : libebml v1.3.6 + libmatroska v1.4.9

Video
ID : 1
Format : AVC
Format/Info : Advanced Video Codec
Format profile : High@L4
Format settings : CABAC / 4 Ref Frames
Format settings, CABAC : Yes
Format settings, RefFrames : 4 frames
Codec ID : V_MPEG4/ISO/AVC
Duration : 29 min 36 s
Bit rate : 5 070 kb/s
Width : 1 920 pixels
Height : 1 080 pixels
Display aspect ratio : 16:9
Frame rate mode : Constant
Frame rate : 23.976 (24000/1001) FPS
Color space : YUV
Chroma subsampling : 4:2:0
Bit depth : 8 bits
Scan type : Progressive
Bits/(Pixel*Frame) : 0.102
Stream size : 1.05 GiB (99%)
Language : English
Default : Yes
Forced : No

Audio
ID : 2
Format : AAC
Format/Info : Advanced Audio Codec
Format profile : HE-AAC / LC
Format settings : Explicit
Codec ID : A_AAC-2
Duration : 29 min 36 s
Bit rate : 64.0 kb/s
Channel(s) : 2 channels
Channel positions : Front: L R
Sampling rate : 48.0 kHz / 24.0 kHz
Frame rate : 23.438 FPS (1024 SPF)
Compression mode : Lossy
Stream size : 13.6 MiB (1%)
Default : Yes
Forced : No





Future Man S02E05


Future Man S02E05


Future Man S02E05


Future Man S02E05


Future Man S02E05

All episodes