Featured TV Shows


Future Man S02E04

Posted By: Tavaz
1080p (FullHD) / WEBRip IMDb
Future Man S02E04

Future Man S02E04
WEBRip | MKV | 1920x1080 | English | H264 @ 3922 kbps | AAC @ 63 kbps | 27 min 27 s | 783 MiB
Genre: Comedy

Josh Futturman, a janitor by day/world-ranked gamer by night, is tasked with preventing the extinction of humanity after mysterious visitors from the future proclaim him the key to defeating the imminent super-race invasion.

32dcc0d588cc45fca55c87cc70ea516b.mkv (783.3 MB)



General
Complete name : ./32dcc0d588cc45fca55c87cc70ea516b.mkv
Format : Matroska
Format version : Version 4 / Version 2
File size : 783 MiB
Duration : 27 min 27 s
Overall bit rate : 3 988 kb/s
Encoded date : UTC 2019-01-11 05:16:32
Writing application : mkvmerge v29.0.0 ('Like It Or Not') 64-bit
Writing library : libebml v1.3.6 + libmatroska v1.4.9

Video
ID : 1
Format : AVC
Format/Info : Advanced Video Codec
Format profile : High@L4
Format settings : CABAC / 4 Ref Frames
Format settings, CABAC : Yes
Format settings, RefFrames : 4 frames
Codec ID : V_MPEG4/ISO/AVC
Duration : 27 min 27 s
Bit rate : 3 922 kb/s
Width : 1 920 pixels
Height : 1 080 pixels
Display aspect ratio : 16:9
Frame rate mode : Constant
Frame rate : 23.976 (24000/1001) FPS
Color space : YUV
Chroma subsampling : 4:2:0
Bit depth : 8 bits
Scan type : Progressive
Bits/(Pixel*Frame) : 0.079
Stream size : 770 MiB (98%)
Language : English
Default : Yes
Forced : No

Audio
ID : 2
Format : AAC
Format/Info : Advanced Audio Codec
Format profile : HE-AAC / LC
Format settings : Explicit
Codec ID : A_AAC-2
Duration : 27 min 27 s
Bit rate : 64.0 kb/s
Channel(s) : 2 channels
Channel positions : Front: L R
Sampling rate : 48.0 kHz / 24.0 kHz
Frame rate : 23.438 FPS (1024 SPF)
Compression mode : Lossy
Stream size : 12.6 MiB (2%)
Default : Yes
Forced : No





Future Man S02E04


Future Man S02E04


Future Man S02E04


Future Man S02E04


Future Man S02E04

All episodes