Doom Patrol S01E05

Posted By: Tavaz
1080p (FullHD) / WEBRip IMDb
Doom Patrol S01E05

Doom Patrol S01E05
WEBRip | MKV | 1920x1080 | English | H264 @ 4979 kbps | AAC @ 128 kbps | 55 min 58 s | 2.00 GiB
Subtitles: English

The Doom Patrol’s members each suffered horrible accidents that gave them superhuman abilities — but also left them scarred and disfigured. Traumatized and downtrodden, the team found purpose through The Chief, who brought them together to investigate the weirdest phenomena in existence — and to protect Earth from what they find.

Doom.Patrol.S01E05.iNTERNAL.1080p.WEB.H264-AMRAP.mkv (2.0 GB)



General
Unique ID : 101697306636911748166387091135282662790 (0x4C823055F441BF25A8524A760391CD86)
Complete name : ./Doom.Patrol.S01E05.iNTERNAL.1080p.WEB.H264-AMRAP.mkv
Format : Matroska
Format version : Version 4 / Version 2
File size : 2.00 GiB
Duration : 55 min 58 s
Overall bit rate : 5 110 kb/s
Encoded date : UTC 2019-03-15 13:04:34
Writing application : mkvmerge v30.1.0 ('Forever And More') 64-bit
Writing library : libebml v1.3.6 + libmatroska v1.4.9

Video
ID : 1
Format : AVC
Format/Info : Advanced Video Codec
Format profile : Baseline@L4
Format settings : 4 Ref Frames
Format settings, CABAC : No
Format settings, RefFrames : 4 frames
Format settings, GOP : M=1, N=48
Codec ID : V_MPEG4/ISO/AVC
Duration : 55 min 57 s
Bit rate : 4 980 kb/s
Width : 1 920 pixels
Height : 1 080 pixels
Display aspect ratio : 16:9
Frame rate mode : Constant
Frame rate : 24.000 FPS
Original frame rate : 23.976 (24000/1001) FPS
Color space : YUV
Chroma subsampling : 4:2:0
Bit depth : 8 bits
Scan type : Progressive
Bits/(Pixel*Frame) : 0.100
Stream size : 1.95 GiB (97%)
Writing library : Zencoder Video Encoding System
Language : English
Default : Yes
Forced : No
Color range : Limited
Color primaries : BT.709
Transfer characteristics : BT.709
Matrix coefficients : BT.709

Audio
ID : 2
Format : AAC
Format/Info : Advanced Audio Codec
Format profile : LC
Codec ID : A_AAC-2
Duration : 55 min 58 s
Bit rate : 128 kb/s
Channel(s) : 2 channels
Channel positions : Front: L R
Sampling rate : 48.0 kHz
Frame rate : 46.875 FPS (1024 SPF)
Compression mode : Lossy
Stream size : 51.3 MiB (3%)
Language : English
Default : Yes
Forced : No

Text
ID : 3
Format : UTF-8
Codec ID : S_TEXT/UTF8
Codec ID/Info : UTF-8 Plain Text
Duration : 54 min 28 s
Bit rate : 70 b/s
Count of elements : 871
Stream size : 28.2 KiB (0%)
Title : en
Language : English
Default : No
Forced : No





Doom Patrol S01E05


Doom Patrol S01E05


Doom Patrol S01E05


Doom Patrol S01E05


Doom Patrol S01E05

All episodes