Doom Patrol S01E05

Posted By: Tavaz
720p (HD) / WEBRip IMDb
Doom Patrol S01E05

Doom Patrol S01E05
WEBRip | MKV | 1280x578 | English | H264 @ 2041 kbps | AAC @ 128 kbps | 55 min 58 s | 869 MiB
Subtitles: English

The Doom Patrol’s members each suffered horrible accidents that gave them superhuman abilities — but also left them scarred and disfigured. Traumatized and downtrodden, the team found purpose through The Chief, who brought them together to investigate the weirdest phenomena in existence — and to protect Earth from what they find.

Doom.Patrol.S01E05.720p.WEBRip.X264-METCON.mkv (869.1 MB)



General
Unique ID : 176513790508572384898686054924801911568 (0x84CB51C90889B52E16663D0C7201AB10)
Complete name : ./Doom.Patrol.S01E05.720p.WEBRip.X264-METCON.mkv
Format : Matroska
Format version : Version 4 / Version 2
File size : 869 MiB
Duration : 55 min 58 s
Overall bit rate : 2 171 kb/s
Encoded date : UTC 2019-03-15 13:17:49
Writing application : mkvmerge v30.1.0 ('Forever And More') 64-bit
Writing library : libebml v1.3.6 + libmatroska v1.4.9

Video
ID : 1
Format : AVC
Format/Info : Advanced Video Codec
Format profile : High@L4.1
Format settings : CABAC / 5 Ref Frames
Format settings, CABAC : Yes
Format settings, RefFrames : 5 frames
Codec ID : V_MPEG4/ISO/AVC
Duration : 55 min 57 s
Bit rate : 2 041 kb/s
Width : 1 280 pixels
Height : 578 pixels
Display aspect ratio : 2.2:1
Original display aspect ratio : 2.2:1
Frame rate mode : Constant
Frame rate : 23.976 (24000/1001) FPS
Color space : YUV
Chroma subsampling : 4:2:0
Bit depth : 8 bits
Scan type : Progressive
Bits/(Pixel*Frame) : 0.115
Stream size : 817 MiB (94%)
Writing library : x264 core 157 r2935 545de2f
Encoding settings : cabac=1 / ref=5 / deblock=1:-3:-3 / analyse=0x3:0x113 / me=umh / subme=8 / psy=1 / psy_rd=1.00:0.00 / mixed_ref=1 / me_range=16 / chroma_me=1 / trellis=2 / 8x8dct=1 / cqm=0 / deadzone=21,11 / fast_pskip=1 / chroma_qp_offset=-2 / threads=18 / lookahead_threads=3 / sliced_threads=0 / nr=0 / decimate=1 / interlaced=0 / bluray_compat=0 / constrained_intra=0 / bframes=3 / b_pyramid=2 / b_adapt=1 / b_bias=0 / direct=3 / weightb=1 / open_gop=0 / weightp=2 / keyint=250 / keyint_min=23 / scenecut=40 / intra_refresh=0 / rc_lookahead=50 / rc=crf / mbtree=1 / crf=18.0 / qcomp=0.60 / qpmin=0 / qpmax=69 / qpstep=4 / ip_ratio=1.40 / aq=3:1.00
Language : English
Default : Yes
Forced : No

Audio
ID : 2
Format : AAC
Format/Info : Advanced Audio Codec
Format profile : LC
Codec ID : A_AAC-2
Duration : 55 min 58 s
Bit rate : 128 kb/s
Channel(s) : 2 channels
Channel positions : Front: L R
Sampling rate : 48.0 kHz
Frame rate : 46.875 FPS (1024 SPF)
Compression mode : Lossy
Stream size : 51.3 MiB (6%)
Language : English
Default : Yes
Forced : No

Text
ID : 3
Format : UTF-8
Codec ID : S_TEXT/UTF8
Codec ID/Info : UTF-8 Plain Text
Duration : 54 min 28 s
Bit rate : 70 b/s
Count of elements : 871
Stream size : 28.2 KiB (0%)
Title : en
Language : English
Default : No
Forced : No





Doom Patrol S01E05


Doom Patrol S01E05


Doom Patrol S01E05


Doom Patrol S01E05


Doom Patrol S01E05

All episodes