Featured TV Shows


Devs S01E02

Posted By: Tavaz
1080p (FullHD) / WEB-DL IMDb
Devs S01E02

Devs S01E02
WEB-DL | MKV | 1920x1080 | English | H264 @ 6898 kbps | E-AC-3 @ 640 kbps | 51 min 46 s | 2.73 GiB
Subtitles: English
Genre: Drama, Mystery


Young computer engineer Lily Chan investigates the secretive development division of her employer, a cutting-edge tech company based in San Francisco, which she believes is behind the murder of her boyfriend.

b95100f89ace4019b4149861fcb8e0e8.mkv (2.7 GB)



General
Unique ID : 216434894562880637680110896563233829058 (0xA2D3D82D8A65909AAFD00974081D30C2)
Complete name : ./b95100f89ace4019b4149861fcb8e0e8.mkv
Format : Matroska
Format version : Version 4 / Version 2
File size : 2.73 GiB
Duration : 51 min 46 s
Overall bit rate : 7 540 kb/s
Encoded date : UTC 2020-03-08 14:36:42
Writing application : mkvmerge v43.0.0 ('The Quartermaster') 64-bit
Writing library : libebml v1.3.10 + libmatroska v1.5.2

Video
ID : 1
Format : AVC
Format/Info : Advanced Video Codec
Format profile : High@L4
Format settings : CABAC / 4 Ref Frames
Format settings, CABAC : Yes
Format settings, RefFrames : 4 frames
Codec ID : V_MPEG4/ISO/AVC
Duration : 51 min 46 s
Bit rate mode : Constant
Bit rate : 6 898 kb/s
Nominal bit rate : 10 000 kb/s
Width : 1 920 pixels
Height : 1 080 pixels
Display aspect ratio : 16:9
Frame rate mode : Constant
Frame rate : 23.976 (24000/1001) FPS
Color space : YUV
Chroma subsampling : 4:2:0
Bit depth : 8 bits
Scan type : Progressive
Bits/(Pixel*Frame) : 0.139
Stream size : 2.49 GiB (91%)
Default : Yes
Forced : No
Color range : Limited
Color primaries : BT.709
Transfer characteristics : BT.709
Matrix coefficients : BT.709

Audio
ID : 2
Format : E-AC-3
Format/Info : Enhanced Audio Coding 3
Format settings, Endianness : Big
Codec ID : A_EAC3
Duration : 51 min 46 s
Bit rate mode : Constant
Bit rate : 640 kb/s
Channel(s) : 6 channels
Channel positions : Front: L C R, Side: L R, LFE
Sampling rate : 48.0 kHz
Frame rate : 187.500 FPS (256 SPF)
Compression mode : Lossy
Stream size : 237 MiB (8%)
Language : English
Service kind : Complete Main
Default : Yes
Forced : No

Text #1
ID : 3
Format : UTF-8
Codec ID : S_TEXT/UTF8
Codec ID/Info : UTF-8 Plain Text
Duration : 51 min 43 s
Bit rate : 32 b/s
Count of elements : 513
Stream size : 12.4 KiB (0%)
Language : English
Default : No
Forced : No

Text #2
ID : 4
Format : UTF-8
Codec ID : S_TEXT/UTF8
Codec ID/Info : UTF-8 Plain Text
Duration : 51 min 43 s
Bit rate : 36 b/s
Count of elements : 600
Stream size : 13.9 KiB (0%)
Title : SDH
Language : English
Default : No
Forced : No





Devs S01E02


Devs S01E02


Devs S01E02


Devs S01E02


Devs S01E02

All episodes