Featured TV Shows


Brooklyn Nine-Nine S06E01

Posted By: Tavaz
1080p (FullHD) / WEBRip IMDb
Brooklyn Nine-Nine S06E01

Brooklyn Nine-Nine S06E01
WEBRip | MKV | 1920x1080 | English | H264 @ 5929 kbps | E-AC-3 @ 640 kbps | 21 min 30 s | 1 011 MiB
Subtitles: English
Genre: Comedy, Crime

A single-camera ensemble comedy following the lives of an eclectic group of detectives in a New York precinct, including one slacker who is forced to shape up when he gets a new boss.

4428a73c90a0422692a3215d363192bb.mkv (1010.9 MB)



General
Unique ID : 68647409195203231513711556710889866884 (0x33A50295BDAA8DB8CC8B8136F2E6C684)
Complete name : ./4428a73c90a0422692a3215d363192bb.mkv
Format : Matroska
Format version : Version 4 / Version 2
File size : 1 011 MiB
Duration : 21 min 30 s
Overall bit rate : 6 572 kb/s
Encoded date : UTC 2019-01-11 08:00:58
Writing application : mkvmerge v30.1.0 ('Forever And More') 64-bit
Writing library : libebml v1.3.6 + libmatroska v1.4.9

Video
ID : 1
Format : AVC
Format/Info : Advanced Video Codec
Format profile : High@L4
Format settings : CABAC / 4 Ref Frames
Format settings, CABAC : Yes
Format settings, RefFrames : 4 frames
Codec ID : V_MPEG4/ISO/AVC
Duration : 21 min 30 s
Bit rate : 5 930 kb/s
Width : 1 920 pixels
Height : 1 080 pixels
Display aspect ratio : 16:9
Frame rate mode : Constant
Frame rate : 23.976 (24000/1001) FPS
Color space : YUV
Chroma subsampling : 4:2:0
Bit depth : 8 bits
Scan type : Progressive
Bits/(Pixel*Frame) : 0.119
Stream size : 912 MiB (90%)
Language : English
Default : Yes
Forced : No
Color range : Limited
Color primaries : BT.709
Transfer characteristics : BT.709
Matrix coefficients : BT.709

Audio
ID : 2
Format : E-AC-3
Format/Info : Enhanced Audio Coding 3
Format settings, Endianness : Big
Codec ID : A_EAC3
Duration : 21 min 30 s
Bit rate mode : Constant
Bit rate : 640 kb/s
Channel(s) : 6 channels
Channel positions : Front: L C R, Side: L R, LFE
Sampling rate : 48.0 kHz
Frame rate : 187.500 FPS (256 SPF)
Compression mode : Lossy
Stream size : 98.4 MiB (10%)
Language : English
Service kind : Complete Main
Default : Yes
Forced : No

Text
ID : 3
Format : UTF-8
Codec ID : S_TEXT/UTF8
Codec ID/Info : UTF-8 Plain Text
Duration : 21 min 22 s
Bit rate : 144 b/s
Count of elements : 671
Stream size : 22.7 KiB (0%)
Title : English
Language : English
Default : No
Forced : No





Brooklyn Nine-Nine S06E01


Brooklyn Nine-Nine S06E01


Brooklyn Nine-Nine S06E01


Brooklyn Nine-Nine S06E01


Brooklyn Nine-Nine S06E01

All episodes