Better Call Saul S02E05

Posted By: Tavaz
1080p (FullHD) / WEB-DL IMDb
Better Call Saul S02E05

Better Call Saul S02E05
WEB-DL | MKV | 1916x1076 | English | H264 @ 4876 kbps | AC-3 @ 384 kbps | 45 min 57 s | 1.72 GiB
Subtitles: English
Genre: Comedy, Crime, Drama

Six years before Saul Goodman meets Walter White. We meet him when the man who will become Saul Goodman is known as Jimmy McGill, a small-time lawyer searching for his destiny, and, more immediately, hustling to make ends meet. Working alongside, and, often, against Jimmy, is “fixer” Mike Erhmantraut. The series will track Jimmy's transformation into Saul Goodman, the man who puts “criminal” in “criminal lawyer".

0489e3f1ecee0955a88c6fa0b129bcac0ab68229.mkv (1.7 GB)
649df08a448ee3fa90f3746baaf6b0907df42c91.srt (52.5 KB)



General
Unique ID : 196473805303938852239208074415493919531 (0x93CF7A7E77F07001B73DE8F20B38B32B)
Complete name : ./0489e3f1ecee0955a88c6fa0b129bcac0ab68229.mkv
Format : Matroska
Format version : Version 4 / Version 2
File size : 1.72 GiB
Duration : 45 min 57 s
Overall bit rate : 5 367 kb/s
Movie name : Better.Call.Saul.S02E05.1080p.WEB-DL.DD5.1.H.264-RARBG
Encoded date : UTC 2016-03-15 08:53:54
Writing application : mkvmerge v6.6.0 ('The Edge Of The In Between') built on Dec 1 2013 17:55:00
Writing library : libebml v1.3.0 + libmatroska v1.4.1
Cover : Yes
Attachments : cover.jpeg

Video
ID : 1
Format : AVC
Format/Info : Advanced Video Codec
Format profile : High@L4
Format settings : CABAC / 4 Ref Frames
Format settings, CABAC : Yes
Format settings, RefFrames : 4 frames
Codec ID : V_MPEG4/ISO/AVC
Duration : 45 min 57 s
Bit rate : 4 876 kb/s
Width : 1 916 pixels
Height : 1 076 pixels
Display aspect ratio : 16:9
Frame rate mode : Constant
Frame rate : 23.976 FPS
Color space : YUV
Chroma subsampling : 4:2:0
Bit depth : 8 bits
Scan type : Progressive
Bits/(Pixel*Frame) : 0.099
Stream size : 1.57 GiB (91%)
Title : Better.Call.Saul.S02E05.1080p.WEB-DL.DD5.1.H.264-RARBG
Language : English
Default : Yes
Forced : No
Color range : Limited
Color primaries : BT.709
Transfer characteristics : BT.709
Matrix coefficients : BT.709

Audio
ID : 2
Format : AC-3
Format/Info : Audio Coding 3
Format settings, Endianness : Big
Codec ID : A_AC3
Duration : 45 min 57 s
Bit rate mode : Constant
Bit rate : 384 kb/s
Channel(s) : 6 channels
Channel positions : Front: L C R, Side: L R, LFE
Sampling rate : 48.0 kHz
Frame rate : 31.250 FPS (1536 SPF)
Bit depth : 16 bits
Compression mode : Lossy
Stream size : 126 MiB (7%)
Title : Better.Call.Saul.S02E05.1080p.WEB-DL.DD5.1.H.264-RARBG
Language : English
Service kind : Complete Main
Default : Yes
Forced : No

Text
ID : 3
Format : UTF-8
Codec ID : S_TEXT/UTF8
Codec ID/Info : UTF-8 Plain Text
Title : English
Language : English
Default : No
Forced : No





Better Call Saul S02E05


Better 			  		   	  			     	 			   		  	   		  		  		 	    	 			   			     			     	 			   		   	  			  	  		 		 			 Call Saul S02E05


Better Call Saul S02E05


Better Call Saul S02E05


Better Call Saul S02E05

All episodes