Featured TV Shows


Animals. S01E10

Posted By: Tavaz
1080p (FullHD) / WEB-DL IMDb
Animals. S01E10

Animals. S01E10
WEB-DL | MKV | 1920x1080 | English | H264 @ 7500 kbps | AC-3 @ 384 kbps | 42 min 50 s | 2.33 GiB
Subtitles: German, Italian, Spanish, French, English
Genre: Animation, Comedy


An animated comedy focusing on the downtrodden creatures native to Earth’s least-habitable environment: New York City. Whether it’s lovelorn rats, gender-questioning pigeons or aging bedbugs in the midst of a midlife crisis, the awkward small talk, moral ambiguity and existential woes of non-human urbanites prove startlingly similar to our own.

89aa81a8f143438c92e6d4ef5cc97d65.mkv (2.3 GB)



General
Unique ID : 175871648720830299390697033001015752184 (0x844FA5C033B7502BA5FE7142CB7CB5F8)
Complete name : ./89aa81a8f143438c92e6d4ef5cc97d65.mkv
Format : Matroska
Format version : Version 4 / Version 2
File size : 2.33 GiB
Duration : 42 min 50 s
Overall bit rate mode : Variable
Overall bit rate : 7 784 kb/s
Encoded date : UTC 2018-07-22 03:50:31 / UTC 2018-04-20 00:47:39
Writing application : mkvmerge v11.0.0 ('Alive') 64bit
Writing library : libebml v1.3.4 + libmatroska v1.4.5 / Lavf58.0.0

Video
ID : 1
Format : AVC
Format/Info : Advanced Video Codec
Format profile : Main@L4
Format settings : CABAC / 3 Ref Frames
Format settings, CABAC : Yes
Format settings, RefFrames : 3 frames
Codec ID : V_MPEG4/ISO/AVC
Duration : 42 min 50 s
Bit rate mode : Variable
Bit rate : 7 500 kb/s
Maximum bit rate : 11.2 Mb/s
Width : 1 920 pixels
Height : 1 080 pixels
Display aspect ratio : 16:9
Frame rate mode : Constant
Frame rate : 25.000 FPS
Color space : YUV
Chroma subsampling : 4:2:0
Bit depth : 8 bits
Scan type : Progressive
Bits/(Pixel*Frame) : 0.145
Stream size : 2.17 GiB (93%)
Writing library : x264 core 148
Encoding settings : cabac=1 / ref=3 / deblock=1:0:0 / analyse=0x1:0x111 / me=umh / subme=10 / psy=1 / psy_rd=1.00:0.00 / mixed_ref=1 / me_range=24 / chroma_me=1 / trellis=2 / 8x8dct=0 / cqm=0 / deadzone=21,11 / fast_pskip=1 / chroma_qp_offset=-2 / threads=8 / lookahead_threads=1 / sliced_threads=0 / nr=0 / decimate=1 / interlaced=0 / bluray_compat=0 / stitchable=1 / constrained_intra=0 / bframes=2 / b_pyramid=0 / b_adapt=2 / b_bias=0 / direct=3 / weightb=1 / open_gop=0 / weightp=2 / keyint=50 / keyint_min=26 / scenecut=0 / intra_refresh=0 / rc_lookahead=50 / rc=2pass / mbtree=1 / bitrate=7500 / ratetol=1.0 / qcomp=0.50 / qpmin=6 / qpmax=51 / qpstep=4 / cplxblur=20.0 / qblur=0.5 / vbv_maxrate=11250 / vbv_bufsize=15000 / nal_hrd=vbr / filler=0 / ip_ratio=1.40 / aq=1:1.00
Default : Yes
Forced : No
Statistics Tags Issue : mkvmerge v11.0.0 ('Alive') 64bit 2018-07-22 03:50:31 / mkvmerge v11.0.0 ('Alive') 64bit 2018-07-22 03:50:31 / UTC 2018-04-20 00:47:39
FromStats_BitRate : 7397831
FromStats_Duration : 00:42:50.320000000
FromStats_FrameCount : 64258
FromStats_StreamSize : 2376849390

Audio
ID : 2
Format : AC-3
Format/Info : Audio Coding 3
Format settings, Endianness : Big
Codec ID : A_AC3
Duration : 42 min 50 s
Bit rate mode : Constant
Bit rate : 384 kb/s
Channel(s) : 6 channels
Channel positions : Front: L C R, Side: L R, LFE
Sampling rate : 48.0 kHz
Frame rate : 31.250 FPS (1536 SPF)
Bit depth : 16 bits
Compression mode : Lossy
Stream size : 118 MiB (5%)
Service kind : Complete Main
Default : Yes
Forced : No
Encoded date : UTC 2018-04-20 00:47:39
Statistics Tags Issue : mkvmerge v11.0.0 ('Alive') 64bit 2018-07-22 03:50:31 / mkvmerge v11.0.0 ('Alive') 64bit 2018-07-22 03:50:31 / UTC 2018-04-20 00:47:39
FromStats_BitRate : 384000
FromStats_Duration : 00:42:50.528000000
FromStats_FrameCount : 80329
FromStats_StreamSize : 123385344

Text #1
ID : 3
Format : UTF-8
Codec ID : S_TEXT/UTF8
Codec ID/Info : UTF-8 Plain Text
Title : Forced
Language : English
Default : Yes
Forced : Yes
Statistics Tags Issue : mkvmerge v11.0.0 ('Alive') 64bit 2018-07-22 03:50:31 / mkvmerge v11.0.0 ('Alive') 64bit 2018-07-22 03:50:31 / UTC 2018-04-20 00:47:39
FromStats_BitRate : 15
FromStats_Duration : 00:18:37.360000000
FromStats_FrameCount : 42
FromStats_StreamSize : 2183

Text #2
ID : 4
Format : UTF-8
Codec ID : S_TEXT/UTF8
Codec ID/Info : UTF-8 Plain Text
Title : English
Language : English
Default : No
Forced : No
Statistics Tags Issue : mkvmerge v11.0.0 ('Alive') 64bit 2018-07-22 03:50:31 / mkvmerge v11.0.0 ('Alive') 64bit 2018-07-22 03:50:31 / UTC 2018-04-20 00:47:39
FromStats_BitRate : 110
FromStats_Duration : 00:40:46.120000000
FromStats_FrameCount : 638
FromStats_StreamSize : 33937

Text #3
ID : 5
Format : UTF-8
Codec ID : S_TEXT/UTF8
Codec ID/Info : UTF-8 Plain Text
Title : Spanish
Language : Spanish
Default : No
Forced : No
Statistics Tags Issue : mkvmerge v11.0.0 ('Alive') 64bit 2018-07-22 03:50:31 / mkvmerge v11.0.0 ('Alive') 64bit 2018-07-22 03:50:31 / UTC 2018-04-20 00:47:39
FromStats_BitRate : 118
FromStats_Duration : 00:42:17.315000000
FromStats_FrameCount : 749
FromStats_StreamSize : 37642

Text #4
ID : 6
Format : UTF-8
Codec ID : S_TEXT/UTF8
Codec ID/Info : UTF-8 Plain Text
Title : French
Language : French
Default : No
Forced : No
Statistics Tags Issue : mkvmerge v11.0.0 ('Alive') 64bit 2018-07-22 03:50:31 / mkvmerge v11.0.0 ('Alive') 64bit 2018-07-22 03:50:31 / UTC 2018-04-20 00:47:39
FromStats_BitRate : 120
FromStats_Duration : 00:42:17.320000000
FromStats_FrameCount : 703
FromStats_StreamSize : 38300

Text #5
ID : 7
Format : UTF-8
Codec ID : S_TEXT/UTF8
Codec ID/Info : UTF-8 Plain Text
Title : German
Language : German
Default : No
Forced : No
Statistics Tags Issue : mkvmerge v11.0.0 ('Alive') 64bit 2018-07-22 03:50:31 / mkvmerge v11.0.0 ('Alive') 64bit 2018-07-22 03:50:31 / UTC 2018-04-20 00:47:39
FromStats_BitRate : 113
FromStats_Duration : 00:42:17.320000000
FromStats_FrameCount : 689
FromStats_StreamSize : 35859

Text #6
ID : 8
Format : UTF-8
Codec ID : S_TEXT/UTF8
Codec ID/Info : UTF-8 Plain Text
Title : Italian
Language : Italian
Default : No
Forced : No
Statistics Tags Issue : mkvmerge v11.0.0 ('Alive') 64bit 2018-07-22 03:50:31 / mkvmerge v11.0.0 ('Alive') 64bit 2018-07-22 03:50:31 / UTC 2018-04-20 00:47:39
FromStats_BitRate : 116
FromStats_Duration : 00:42:17.320000000
FromStats_FrameCount : 673
FromStats_StreamSize : 36796





Animals. S01E10


Animals. S01E10


Animals. S01E10


Animals. S01E10


Animals. S01E10

All episodes