Subcategories
Tags
Language
Tags

Frank Zappa - Zappa Movie (2020} {Film by Alex Winter, Magnolia Pictures}

Posted By: ruskaval
Frank Zappa - Zappa Movie (2020} {Film by Alex Winter, Magnolia Pictures}

Frank Zappa - Zappa Movie (2020} {Film by Alex Winter, Magnolia Pictures}
WEB -> 8.12 Gb | AVC/H.264 | 1080p | 2h7m | MKV | DD+ 48000Hz 6ch 640kbps | Full Artwork | 5% repair rar
© 2020 Magnolia Pictures / Alex Winter
Documentary / Biography / Music

Very well done, in depth, reflection on the life of an absolute original. Great old footage of Frank, his music, family, band members, and the many wonderful Zappa media appearances. Highly recommend.
Frank Zappa - Zappa Movie (2020} {Film by Alex Winter, Magnolia Pictures}

Great to see a very well made documentary on Frank's life done in a Zappaesque style (complete with quick edits and clips from cheap 1950s monster movies). Alex Winter's access to the Zappa vault allows him use previously unseen glimpses into Frank's early years. In addition, large parts of the film use Frank's voice-over as narration, making it seem as if he is telling his own story. My only hint of criticism is that perhaps too much time is spent on the original Mothers while glossing over some of my favorite later versions of the band (Grand Wazoo, Ruth-Napoleon-Duke band, etc.), but documentaries usually focus more on the developmental years. Great interviews with Ruth Underwood, Bunk Gardner, Ian Underwood, Steve Vai, Ray White, etc.
Frank Zappa probably deserves a 10-part Ken Burns type documentary (and I'm sure there is enough material out there to do one), but Ken Burns probably would never have the insight and enthusiasm that Alex Winter brings to the project. He manages to give us a glimpse of the complete man; composer, guitar player, businessman, advocate for freedom of expression, and even family man.
Frank Zappa - Zappa Movie (2020} {Film by Alex Winter, Magnolia Pictures}


zappa.com INFO
Zappa - Official Trailer


Tracklisting:

Frank Zappa - Zappa Movie (2020} {Film by Alex Winter, Magnolia Pictures}


General
Unique ID : 154684585322127497178287651622554517653 (0x745F2AE003E47F2F67F0E8D2F4954095)
Complete name : F:\[[[JOB]]]\Frank Zappa - Zappa Movie (2020) {Film by Alex Winter, Magnolia Pictures}\Zappa.2020.1080p.WEB.h264-OPUS.mkv
Format : Matroska
Format version : Version 4
File size : 7.84 GiB
Duration : 2 h 7 min
Overall bit rate : 8 777 kb/s
Writing application : mkvmerge v51.0.0 ('I Wish') 64-bit
Writing library : libebml v1.4.0 + libmatroska v1.6.2

Video
ID : 1
Format : AVC
Format/Info : Advanced Video Codec
Format profile : High@L4
Format settings : CABAC / 4 Ref Frames
Format settings, CABAC : Yes
Format settings, Reference frames : 4 frames
Codec ID : V_MPEG4/ISO/AVC
Duration : 2 h 7 min
Bit rate mode : Constant
Bit rate : 8 135 kb/s
Nominal bit rate : 10 000 kb/s
Width : 1 920 pixels
Height : 1 080 pixels
Display aspect ratio : 16:9
Frame rate mode : Constant
Frame rate : 23.976 (24000/1001) FPS
Color space : YUV
Chroma subsampling : 4:2:0
Bit depth : 8 bits
Scan type : Progressive
Bits/(Pixel*Frame) : 0.164
Stream size : 7.27 GiB (93%)
Default : Yes
Forced : No
Color range : Limited
Color primaries : BT.709
Transfer characteristics : BT.709
Matrix coefficients : BT.709

Audio
ID : 2
Format : E-AC-3
Format/Info : Enhanced AC-3
Commercial name : Dolby Digital Plus
Codec ID : A_EAC3
Duration : 2 h 7 min
Bit rate mode : Constant
Bit rate : 640 kb/s
Channel(s) : 6 channels
Channel layout : L R C LFE Ls Rs
Sampling rate : 48.0 kHz
Frame rate : 31.250 FPS (1536 SPF)
Compression mode : Lossy
Stream size : 586 MiB (7%)
Title : English
Language : English
Service kind : Complete Main
Default : Yes
Forced : No

Text
ID : 3
Format : UTF-8
Codec ID : S_TEXT/UTF8
Codec ID/Info : UTF-8 Plain Text
Duration : 2 h 7 min
Bit rate : 87 b/s
Count of elements : 2205
Stream size : 81.3 KiB (0%)
Title : English (SDH)
Language : English
Default : No
Forced : No


Frank Zappa - Zappa Movie (2020} {Film by Alex Winter, Magnolia Pictures}

Frank Zappa - Zappa Movie (2020} {Film by Alex Winter, Magnolia Pictures}

Frank Zappa - Zappa Movie (2020} {Film by Alex Winter, Magnolia Pictures}

Frank Zappa - Zappa Movie (2020} {Film by Alex Winter, Magnolia Pictures}



===