Tags
Language
Tags

Valerie June - The Moon And Stars: Prescriptions For Dreamers (2021)

Posted By: delpotro
Valerie June - The Moon And Stars: Prescriptions For Dreamers (2021)

Valerie June - The Moon And Stars: Prescriptions For Dreamers (2021)
XLD Rip | FLAC (tracks+log+.cue) - 247 Mb | MP3 CBR 320 kbps - 102 Mb | 00:44:30
Soul, Blues, Female Vocal | Label: Fantasy Records

Conjuring a next-generation fusion of folk, soul, gospel, country and transcendental blues, The Moon and Stars, Prescriptions For Dreamers, Valerie June’s third full-length album for Fantasy Records is a deeply affecting work of genuine beauty and unassuming wonder. Produced by Jack Splash (Kendrick Lamar, Alicia Keys, John Legend) and Valerie June and recorded at Fresh Young Minds in Los Angeles, CA and Hit Factory Criteria in Miami, FL., the new album is her first release since 2017’s highly acclaimed The Order of Time and features 11 songs and three musical interludes, all written by Valerie.
Tracklist:
1. Stay (03:01)
2. Stay Meditation (00:54)
3. You And I (03:39)
4. Colors (04:19)
5. Stardust Scattering (04:29)
6. African Proverb (feat. Carla Thomas) (00:27)
7. Call Me A Fool (feat. Carla Thomas) (03:43)
8. Fallin' (03:18)
9. Smile (03:30)
10. Within You (04:58)
11. Two Roads (04:11)
12. Why The Bright Stars Glow (03:25)
13. Home Inside (02:59)
14. Starlight Ethereal Silence (01:29)

X Lossless Decoder version 20181019 (151.1)

XLD extraction logfile from 2021-05-01 17:42:09 -0400

Valerie June / The Moon And Stars: Prescriptions For Dreamers

Used drive : HL-DT-ST DVDRAM GP65NS60 (revision PF00)
Media type : Pressed CD

Ripper mode : XLD Secure Ripper
Disable audio cache : OK for the drive with a cache less than 1375KiB
Make use of C2 pointers : NO
Read offset correction : 6
Max retry count : 100
Gap status : Analyzed, Appended (except HTOA)

TOC of the extracted CD
Track | Start | Length | Start sector | End sector
––––––––––––––––––––––––––––-
1 | 00:00:00 | 03:01:59 | 0 | 13633
2 | 03:01:59 | 00:54:56 | 13634 | 17739
3 | 03:56:40 | 03:39:04 | 17740 | 34168
4 | 07:35:44 | 04:19:60 | 34169 | 53653
5 | 11:55:29 | 04:29:54 | 53654 | 73882
6 | 16:25:08 | 00:27:51 | 73883 | 75958
7 | 16:52:59 | 03:43:66 | 75959 | 92749
8 | 20:36:50 | 03:18:44 | 92750 | 107643
9 | 23:55:19 | 03:30:26 | 107644 | 123419
10 | 27:25:45 | 04:58:58 | 123420 | 145827
11 | 32:24:28 | 04:11:25 | 145828 | 164677
12 | 36:35:53 | 03:25:38 | 164678 | 180090
13 | 40:01:16 | 02:59:26 | 180091 | 193541
14 | 43:00:42 | 01:29:37 | 193542 | 200253

AccurateRip Summary (DiscID: 00168a7e-00f4c14b-c80a6e0e)
Track 01 : OK (v2, confidence 2/2)
Track 02 : OK (v2, confidence 2/2)
Track 03 : OK (v2, confidence 2/2)
Track 04 : OK (v2, confidence 2/2)
Track 05 : OK (v2, confidence 2/2)
Track 06 : OK (v2, confidence 2/2)
Track 07 : OK (v2, confidence 2/2)
Track 08 : OK (v2, confidence 2/2)
Track 09 : OK (v2, confidence 2/2)
Track 10 : OK (v2, confidence 2/2)
Track 11 : OK (v2, confidence 2/2)
Track 12 : OK (v2, confidence 2/2)
Track 13 : OK (v2, confidence 2/2)
Track 14 : OK (v2, confidence 2/2)
->All tracks accurately ripped.

All Tracks
Album gain : -8.95 dB
Peak : 0.982666
Statistics
Read error : 0
Jitter error (maybe fixed) : 0
Retry sector count : 0
Damaged sector count : 0

Track 01
Filename : /Users/mydrive/Music/Valerie June - The Moon And Stars: Prescriptions For Dreamers (2021) [FLAC]/01 Stay.flac
Pre-gap length : 00:02:00

Track gain : -9.89 dB
Peak : 0.982666
CRC32 hash (test run) : 453CB47F
CRC32 hash : 453CB47F
CRC32 hash (skip zero) : 1658ABC9
AccurateRip v1 signature : 0D6E9582
AccurateRip v2 signature : 7476D4FF
->Accurately ripped (v2, confidence 2/2)
Statistics
Read error : 0
Jitter error (maybe fixed) : 0
Retry sector count : 0
Damaged sector count : 0

Track 02
Filename : /Users/mydrive/Music/Valerie June - The Moon And Stars: Prescriptions For Dreamers (2021) [FLAC]/02 Stay Meditation.flac

Track gain : 3.72 dB
Peak : 0.305878
CRC32 hash (test run) : 0B116DE5
CRC32 hash : 0B116DE5
CRC32 hash (skip zero) : 7D8CEDBF
AccurateRip v1 signature : BC01EC07
AccurateRip v2 signature : C1D17D9C
->Accurately ripped (v2, confidence 2/2)
Statistics
Read error : 0
Jitter error (maybe fixed) : 0
Retry sector count : 0
Damaged sector count : 0

Track 03
Filename : /Users/mydrive/Music/Valerie June - The Moon And Stars: Prescriptions For Dreamers (2021) [FLAC]/03 You And I.flac

Track gain : -9.48 dB
Peak : 0.982666
CRC32 hash (test run) : AB5A4388
CRC32 hash : AB5A4388
CRC32 hash (skip zero) : D5BC55B0
AccurateRip v1 signature : 5C3FFF43
AccurateRip v2 signature : ED5DE4E9
->Accurately ripped (v2, confidence 2/2)
Statistics
Read error : 0
Jitter error (maybe fixed) : 0
Retry sector count : 0
Damaged sector count : 0

Track 04
Filename : /Users/mydrive/Music/Valerie June - The Moon And Stars: Prescriptions For Dreamers (2021) [FLAC]/04 Colors.flac

Track gain : -8.84 dB
Peak : 0.982666
CRC32 hash (test run) : CD5F8309
CRC32 hash : CD5F8309
CRC32 hash (skip zero) : F7473C1A
AccurateRip v1 signature : 5A9458E1
AccurateRip v2 signature : 85A27F66
->Accurately ripped (v2, confidence 2/2)
Statistics
Read error : 0
Jitter error (maybe fixed) : 0
Retry sector count : 0
Damaged sector count : 0

Track 05
Filename : /Users/mydrive/Music/Valerie June - The Moon And Stars: Prescriptions For Dreamers (2021) [FLAC]/05 Stardust Scattering.flac

Track gain : -7.50 dB
Peak : 0.982666
CRC32 hash (test run) : D6D895B2
CRC32 hash : D6D895B2
CRC32 hash (skip zero) : DBFAC99F
AccurateRip v1 signature : 0482B5AE
AccurateRip v2 signature : 29CE3F4B
->Accurately ripped (v2, confidence 2/2)
Statistics
Read error : 0
Jitter error (maybe fixed) : 0
Retry sector count : 0
Damaged sector count : 0

Track 06
Filename : /Users/mydrive/Music/Valerie June - The Moon And Stars: Prescriptions For Dreamers (2021) [FLAC]/06 African Proverb.flac

Track gain : -1.20 dB
Peak : 0.874664
CRC32 hash (test run) : 9A297AFB
CRC32 hash : 9A297AFB
CRC32 hash (skip zero) : 775B8AD2
AccurateRip v1 signature : DCF07CF2
AccurateRip v2 signature : FE53309B
->Accurately ripped (v2, confidence 2/2)
Statistics
Read error : 0
Jitter error (maybe fixed) : 0
Retry sector count : 0
Damaged sector count : 0

Track 07
Filename : /Users/mydrive/Music/Valerie June - The Moon And Stars: Prescriptions For Dreamers (2021) [FLAC]/07 Call Me A Fool.flac

Track gain : -10.35 dB
Peak : 0.982666
CRC32 hash (test run) : BE4EEC4C
CRC32 hash : BE4EEC4C
CRC32 hash (skip zero) : 7CCD3E1C
AccurateRip v1 signature : 55548BA2
AccurateRip v2 signature : 5EFBA3E3
->Accurately ripped (v2, confidence 2/2)
Statistics
Read error : 0
Jitter error (maybe fixed) : 0
Retry sector count : 0
Damaged sector count : 0

Track 08
Filename : /Users/mydrive/Music/Valerie June - The Moon And Stars: Prescriptions For Dreamers (2021) [FLAC]/08 Fallin'.flac

Track gain : -7.12 dB
Peak : 0.982666
CRC32 hash (test run) : DA78BA8C
CRC32 hash : DA78BA8C
CRC32 hash (skip zero) : 668A10C9
AccurateRip v1 signature : 10CCDD78
AccurateRip v2 signature : DEC27F43
->Accurately ripped (v2, confidence 2/2)
Statistics
Read error : 0
Jitter error (maybe fixed) : 0
Retry sector count : 0
Damaged sector count : 0

Track 09
Filename : /Users/mydrive/Music/Valerie June - The Moon And Stars: Prescriptions For Dreamers (2021) [FLAC]/09 Smile.flac

Track gain : -10.19 dB
Peak : 0.982666
CRC32 hash (test run) : 540C06C9
CRC32 hash : 540C06C9
CRC32 hash (skip zero) : A69CC175
AccurateRip v1 signature : 667A6ECE
AccurateRip v2 signature : 2419DAC7
->Accurately ripped (v2, confidence 2/2)
Statistics
Read error : 0
Jitter error (maybe fixed) : 0
Retry sector count : 0
Damaged sector count : 0

Track 10
Filename : /Users/mydrive/Music/Valerie June - The Moon And Stars: Prescriptions For Dreamers (2021) [FLAC]/10 Within You.flac

Track gain : -9.49 dB
Peak : 0.982666
CRC32 hash (test run) : 4DC33A7E
CRC32 hash : 4DC33A7E
CRC32 hash (skip zero) : B264767C
AccurateRip v1 signature : DA8FDFE5
AccurateRip v2 signature : 1DF9BD9C
->Accurately ripped (v2, confidence 2/2)
Statistics
Read error : 0
Jitter error (maybe fixed) : 0
Retry sector count : 0
Damaged sector count : 0

Track 11
Filename : /Users/mydrive/Music/Valerie June - The Moon And Stars: Prescriptions For Dreamers (2021) [FLAC]/11 Two Roads.flac

Track gain : -6.74 dB
Peak : 0.982666
CRC32 hash (test run) : E37D17BF
CRC32 hash : E37D17BF
CRC32 hash (skip zero) : 65043764
AccurateRip v1 signature : C354F295
AccurateRip v2 signature : 2ABA7E3A
->Accurately ripped (v2, confidence 2/2)
Statistics
Read error : 0
Jitter error (maybe fixed) : 0
Retry sector count : 0
Damaged sector count : 0

Track 12
Filename : /Users/mydrive/Music/Valerie June - The Moon And Stars: Prescriptions For Dreamers (2021) [FLAC]/12 Why The Bright Stars Glow.flac

Track gain : -8.63 dB
Peak : 0.982666
CRC32 hash (test run) : ADA215A2
CRC32 hash : ADA215A2
CRC32 hash (skip zero) : 7F6ACB71
AccurateRip v1 signature : 4438FC0D
AccurateRip v2 signature : 613D3A04
->Accurately ripped (v2, confidence 2/2)
Statistics
Read error : 0
Jitter error (maybe fixed) : 0
Retry sector count : 0
Damaged sector count : 0

Track 13
Filename : /Users/mydrive/Music/Valerie June - The Moon And Stars: Prescriptions For Dreamers (2021) [FLAC]/13 Home Inside.flac

Track gain : -8.72 dB
Peak : 0.982666
CRC32 hash (test run) : 2E45868B
CRC32 hash : 2E45868B
CRC32 hash (skip zero) : 1C9048BA
AccurateRip v1 signature : 45D26A59
AccurateRip v2 signature : 5437AF04
->Accurately ripped (v2, confidence 2/2)
Statistics
Read error : 0
Jitter error (maybe fixed) : 0
Retry sector count : 0
Damaged sector count : 0

Track 14
Filename : /Users/mydrive/Music/Valerie June - The Moon And Stars: Prescriptions For Dreamers (2021) [FLAC]/14 Starlight Ethereal Silence.flac
Pre-gap length : 00:30:16

Track gain : 3.55 dB
Peak : 0.467133
CRC32 hash (test run) : 07B08EE8
CRC32 hash : 07B08EE8
CRC32 hash (skip zero) : 4D370C82
AccurateRip v1 signature : 6AB8EDF1
AccurateRip v2 signature : 459B6E1B
->Accurately ripped (v2, confidence 2/2)
Statistics
Read error : 0
Jitter error (maybe fixed) : 0
Retry sector count : 0
Damaged sector count : 0

No errors occurred

End of status report

––-BEGIN XLD SIGNATURE––-
W0PMXmnWtZMfqL.fTLV0bZ3RMAkyyjkF16bFFRWqdQ2bNvpRFe8dwPmC7LhFhPNlpi82BBmY8twmLUEcLmW0XPHbkUPJ.IJJbzcmlOy
––-END XLD SIGNATURE––-

Thanks to the Original ripper !