Subcategories
Please register here if you want to download anything!

If domain in your address bar is different from the list below
PLEASE LEAVE THAT SITE IMMEDIATELY
❗IT'S A DANGEROUS FAKE❗



Spicy Magazines for Men! ;-)

VA - Compact Disc Club: Cocooning (2011)

Posted By: El Misha
VA - Compact Disc Club: Cocooning (2011)

VA - Compact Disc Club: Cocooning (2011)
EAC Rip | FLAC (tracks & cue & log) -> 1.89 GB | Scans included | 04:49:14
Genre: Easy Listening, Nu Jazz, Lo-Fi, Lounge, Funk, Soul | Label: CDC Records

"The collection" Cocooning "is the Compact Disc Club's proposal for a special, enjoyable day at home. It is the ideal soundtrack from morning until late at night! Indulge in the rhythms and all you have to do is organize your space properly!



Tracklist:

CD 1: Coffee Time
01. Amy Winehouse - You know I'm no good
02. Pixie Lott - Mama do (Uh oh, uh oh)
03. Noisettes - Never forget you
04. Dub Pistols - I'm in love (Feat. Lindy Layton & Rodney P)
05. Laidback - Groovin' on a feeling
06. Womack & Womack - Life's just a ballgame
07. Empire Of The Sun - Walking On A Dream
08. Sharam feat. Kid Kudi - She came along
09. Caro Emerald - Back it up
10. Grace - Imagine one day
11. Ken Boothe - Everything I own
12. Leo Sayer - You make me feel like dancing
13. Mika - Relax
14. Kt Tunstall - Suddenly I see
15. Pete Yorn & Scarlett Johansson - Relator
16. Irene - Stardust
17. The Monkees - I'm a believer
18. Billy Swan - I can help
19. The Lovin' Spoonful - Do you believe in magic?
20. Iggy Pop - King of the dogs
21. Joe Cocker - Unchain my heart

Exact Audio Copy V0.99 prebeta 5 from 4. May 2009

EAC extraction logfile from 19. April 2011, 4:16

Various / CDC - Cocooning CD1

Used drive : HL-DT-STDVDRAM GH10N Adapter: 3 ID: 0

Read mode : Secure
Utilize accurate stream : Yes
Defeat audio cache : Yes
Make use of C2 pointers : No

Read offset correction : 667
Overread into Lead-In and Lead-Out : No
Fill up missing offset samples with silence : Yes
Delete leading and trailing silent blocks : No
Null samples used in CRC calculations : Yes
Used interface : Native Win32 interface for Win NT & 2000

Used output format : User Defined Encoder
Selected bitrate : 1024 kBit/s
Quality : High
Add ID3 tag : No
Command line compressor : C:\Program Files\FLAC\flac.exe
Additional command line options : -V -5 -T "artist=%a" -T "title=%t" -T "album=%g" -T "date=%y" -T "tracknumber=%n" -T "genre=%m" -5 %s


TOC of the extracted CD

Track | Start | Length | Start sector | End sector
––––––––––––––––––––––––––––-
1 | 0:00.00 | 4:12.07 | 0 | 18906
2 | 4:12.07 | 3:14.61 | 18907 | 33517
3 | 7:26.68 | 3:09.27 | 33518 | 47719
4 | 10:36.20 | 3:58.14 | 47720 | 65583
5 | 14:34.34 | 3:33.72 | 65584 | 81630
6 | 18:08.31 | 4:20.01 | 81631 | 101131
7 | 22:28.32 | 3:09.34 | 101132 | 115340
8 | 25:37.66 | 3:31.51 | 115341 | 131216
9 | 29:09.42 | 3:48.57 | 131217 | 148373
10 | 32:58.24 | 3:28.31 | 148374 | 164004
11 | 36:26.55 | 3:38.62 | 164005 | 180416
12 | 40:05.42 | 3:35.22 | 180417 | 196563
13 | 43:40.64 | 3:40.70 | 196564 | 213133
14 | 47:21.59 | 3:15.49 | 213134 | 227807
15 | 50:37.33 | 2:31.24 | 227808 | 239156
16 | 53:08.57 | 1:13.38 | 239157 | 244669
17 | 54:22.20 | 2:41.46 | 244670 | 256790
18 | 57:03.66 | 3:52.23 | 256791 | 274213
19 | 60:56.14 | 2:00.59 | 274214 | 283272
20 | 62:56.73 | 1:58.65 | 283273 | 292187
21 | 64:55.63 | 5:03.24 | 292188 | 314936


Range status and errors

Selected range

Filename U:\EAC Rips\CDC - Cocooning\Coc1CoffeeTime\Various - CDC - Cocooning CD1.wav

Peak level 98.8 %
Range quality 100.0 %
Test CRC 5E16141C
Copy CRC 5E16141C
Copy OK

No errors occurred


AccurateRip summary

Track 1 cannot be verified as accurate (confidence 1) [47A5433A], AccurateRip returned [8EAE25B6]
Track 2 accurately ripped (confidence 1) [04B73309]
Track 3 accurately ripped (confidence 1) [03B1F0B3]
Track 4 accurately ripped (confidence 1) [D2B8F46D]
Track 5 accurately ripped (confidence 1) [FDEB97A5]
Track 6 accurately ripped (confidence 1) [09BDC3DB]
Track 7 accurately ripped (confidence 1) [862C2541]
Track 8 accurately ripped (confidence 1) [F6C92D38]
Track 9 accurately ripped (confidence 1) [334B4B11]
Track 10 accurately ripped (confidence 1) [3E56C112]
Track 11 accurately ripped (confidence 1) [D9F91720]
Track 12 accurately ripped (confidence 1) [FBF22306]
Track 13 accurately ripped (confidence 1) [C0F8F0BC]
Track 14 accurately ripped (confidence 1) [F19C2EF5]
Track 15 accurately ripped (confidence 1) [AE42B7BC]
Track 16 accurately ripped (confidence 1) [7C1E0622]
Track 17 accurately ripped (confidence 1) [1DC48A65]
Track 18 accurately ripped (confidence 1) [707AC183]
Track 19 accurately ripped (confidence 1) [E6684F48]
Track 20 cannot be verified as accurate (confidence 1) [E1BBD92B], AccurateRip returned [65F998F3]
Track 21 cannot be verified as accurate (confidence 1) [269EDFAA], AccurateRip returned [7DDDA42C]

18 track(s) accurately ripped
3 track(s) could not be verified as accurate

Some tracks could not be verified as accurate

End of status report


CD 2: Cocktail
01. Parov Stelar - Coco (Feat. Lilja Bloom)
02. Frederico Aubele - Suena mi guitar
03. Koop - Koop island blues
04. Branded Women - Every bruise
05. Saint Privat - Somebody to love
06. Dusty Springfield - Daydreaming
07. Faithless feat. Dido - One step too far
08. Club Des Belugas - Let love lead the way
09. Andy Williams - Sunny
10. Cayetano - Nothing left to do (Feat. Valia)
11. Parov Stelar - Nowhere
12. Max Sedgley - Slowly
13. The Funky Lowlives - Sail into the sun
14. Miles Davis - The doo-bop song
15. Jose Padilla - Something
16. Simply Red - Sunrise
17. Incognito feat. Mario Biondi & Chaka Khan - Lowdown
18. The Christians - The bottle
19. Swing Out Sister - Am I the same girl?

Exact Audio Copy V0.99 prebeta 5 from 4. May 2009

EAC extraction logfile from 19. April 2011, 5:08

Various / CDC - Cocooning CD2

Used drive : HL-DT-STDVDRAM GH10N Adapter: 3 ID: 0

Read mode : Secure
Utilize accurate stream : Yes
Defeat audio cache : Yes
Make use of C2 pointers : No

Read offset correction : 667
Overread into Lead-In and Lead-Out : No
Fill up missing offset samples with silence : Yes
Delete leading and trailing silent blocks : No
Null samples used in CRC calculations : Yes
Used interface : Native Win32 interface for Win NT & 2000

Used output format : User Defined Encoder
Selected bitrate : 1024 kBit/s
Quality : High
Add ID3 tag : No
Command line compressor : C:\Program Files\FLAC\flac.exe
Additional command line options : -V -5 -T "artist=%a" -T "title=%t" -T "album=%g" -T "date=%y" -T "tracknumber=%n" -T "genre=%m" -5 %s


TOC of the extracted CD

Track | Start | Length | Start sector | End sector
––––––––––––––––––––––––––––-
1 | 0:00.00 | 2:51.04 | 0 | 12828
2 | 2:51.04 | 2:58.35 | 12829 | 26213
3 | 5:49.39 | 4:30.32 | 26214 | 46495
4 | 10:19.71 | 3:58.03 | 46496 | 64348
5 | 14:17.74 | 3:43.11 | 64349 | 81084
6 | 18:01.10 | 4:47.36 | 81085 | 102645
7 | 22:48.46 | 4:58.03 | 102646 | 124998
8 | 27:46.49 | 5:19.70 | 124999 | 148993
9 | 33:06.44 | 3:09.72 | 148994 | 163240
10 | 36:16.41 | 4:16.38 | 163241 | 182478
11 | 40:33.04 | 3:38.67 | 182479 | 198895
12 | 44:11.71 | 4:15.57 | 198896 | 218077
13 | 48:27.53 | 5:00.33 | 218078 | 240610
14 | 53:28.11 | 4:48.70 | 240611 | 262280
15 | 58:17.06 | 4:36.52 | 262281 | 283032
16 | 62:53.58 | 3:12.52 | 283033 | 297484
17 | 66:06.35 | 4:23.19 | 297485 | 317228
18 | 70:29.54 | 4:28.13 | 317229 | 337341
19 | 74:57.67 | 3:58.04 | 337342 | 355195


Range status and errors

Selected range

Filename U:\EAC Rips\CDC - Cocooning\Coc2Cocktail\Various - CDC - Cocooning CD2.wav

Peak level 98.8 %
Range quality 100.0 %
Test CRC F6EB7871
Copy CRC F6EB7871
Copy OK

No errors occurred


AccurateRip summary

Track 1 not present in database
Track 2 not present in database
Track 3 not present in database
Track 4 not present in database
Track 5 not present in database
Track 6 not present in database
Track 7 not present in database
Track 8 not present in database
Track 9 not present in database
Track 10 not present in database
Track 11 not present in database
Track 12 not present in database
Track 13 not present in database
Track 14 not present in database
Track 15 not present in database
Track 16 not present in database
Track 17 not present in database
Track 18 not present in database
Track 19 not present in database

None of the tracks are present in the AccurateRip database

End of status report


CD 3: Dinner
01. Sacha Distel - The good life
02. Jane Russell - What is this that I feel?
03. Wayne Newton - Danke Schoen
04. Amy Winehouse - Me & Mr. Jones
05. Oscar Brown Jr. - Opportunity, please knock
06. Louis Armstrong - Ramona
07. Eartha Kitt - Take my love, take my love
08. Matt Monro - Honey on the vine
09. Paris Combo - Fibre de verre
10. Paolo Conte - Via con me
11. Bryan Ferry - The way you look tonight
12. The Puppini Sisters - Bei mir bist Du Schon
13. Serge Lama - Les hommes et les femmes
14. Club Des Belugas - Clyde Beluga
15. Bobby Darin - Call me irresponsible
16. Nina Simone - My baby just cares for me
17. Mario Biondi - No trouble on the mountain
18. The Jazzinvaders - Love and happiness
19. Berk & The Virtual Band - Ma quale idea
20. Nek - La voglia che non vorrei
21. Fine Young Cannibals - Johnny come home
22. Koop - Let's elope

Exact Audio Copy V0.99 prebeta 5 from 4. May 2009

EAC extraction logfile from 19. April 2011, 14:41

Various / CDC-Cocooning CD3

Used drive : HL-DT-STDVDRAM GH10N Adapter: 3 ID: 0

Read mode : Secure
Utilize accurate stream : Yes
Defeat audio cache : Yes
Make use of C2 pointers : No

Read offset correction : 667
Overread into Lead-In and Lead-Out : No
Fill up missing offset samples with silence : Yes
Delete leading and trailing silent blocks : No
Null samples used in CRC calculations : Yes
Used interface : Native Win32 interface for Win NT & 2000

Used output format : User Defined Encoder
Selected bitrate : 1024 kBit/s
Quality : High
Add ID3 tag : No
Command line compressor : C:\Program Files\FLAC\flac.exe
Additional command line options : -V -5 -T "artist=%a" -T "title=%t" -T "album=%g" -T "date=%y" -T "tracknumber=%n" -T "genre=%m" -5 %s


TOC of the extracted CD

Track | Start | Length | Start sector | End sector
––––––––––––––––––––––––––––-
1 | 0:00.00 | 2:25.22 | 0 | 10896
2 | 2:25.22 | 2:17.07 | 10897 | 21178
3 | 4:42.29 | 2:32.42 | 21179 | 32620
4 | 7:14.71 | 2:28.64 | 32621 | 43784
5 | 9:43.60 | 2:48.41 | 43785 | 56425
6 | 12:32.26 | 2:42.57 | 56426 | 68632
7 | 15:15.08 | 2:28.15 | 68633 | 79747
8 | 17:43.23 | 2:15.48 | 79748 | 89920
9 | 19:58.71 | 3:33.66 | 89921 | 105961
10 | 23:32.62 | 2:25.65 | 105962 | 116901
11 | 25:58.52 | 3:30.59 | 116902 | 132710
12 | 29:29.36 | 2:14.65 | 132711 | 142825
13 | 31:44.26 | 2:21.04 | 142826 | 153404
14 | 34:05.30 | 3:56.60 | 153405 | 171164
15 | 38:02.15 | 2:01.38 | 171165 | 180277
16 | 40:03.53 | 3:33.66 | 180278 | 196318
17 | 43:37.44 | 4:17.10 | 196319 | 215603
18 | 47:54.54 | 5:23.34 | 215604 | 239862
19 | 53:18.13 | 3:43.06 | 239863 | 256593
20 | 57:01.19 | 3:43.11 | 256594 | 273329
21 | 60:44.30 | 4:04.21 | 273330 | 291650
22 | 64:48.51 | 3:12.56 | 291651 | 306106


Range status and errors

Selected range

Filename U:\EAC Rips\CDC - Cocooning\Coc3Dinner\Various - CDC-Cocooning CD3.wav

Peak level 98.8 %
Range quality 99.9 %
Test CRC 4D6B9D8B
Copy CRC 4D6B9D8B
Copy OK

No errors occurred


AccurateRip summary

Track 1 not present in database
Track 2 not present in database
Track 3 not present in database
Track 4 not present in database
Track 5 not present in database
Track 6 not present in database
Track 7 not present in database
Track 8 not present in database
Track 9 not present in database
Track 10 not present in database
Track 11 not present in database
Track 12 not present in database
Track 13 not present in database
Track 14 not present in database
Track 15 not present in database
Track 16 not present in database
Track 17 not present in database
Track 18 not present in database
Track 19 not present in database
Track 20 not present in database
Track 21 not present in database
Track 22 not present in database

None of the tracks are present in the AccurateRip database

End of status report


CD 4: After Dark
01. Leo Sayer - Easy to love
02. Lou Rawls - See you when I get there
03. Stephanie Mills - Never knew love like this before
04. Alessandro Magnanini - Secret lover
05. Barry White - Love is good with you
06. Inspiro & Ornella Vanoni - Perduto (Radio mix) (Radio mix)
07. Her Majesty's Sound - Last dance (Remix 09 edit)
08. Pieter Embrechts & The New Radio Kings - Dance me to the end of love
09. Dj Disse & Betina Bager feat. Fred Astaire - Cheek to cheek
10. Parov Stelar - Booty swing
11. Herr Tischbein - Sympathie
12. Nola Grey - Starlight
13. Club Des Belugas - It don't mean a thing
14. Mo' Horizons - Hir the road Jack (Pe na estrada)
15. Fred Astaire - Puttin' on the Ritz (Club Des Belugas remix)
16. Aretha Franklin - Won't be long
17. Mel Torme - Comin' home baby
18. Ray Charles - I've got a woman
19. David Lee Roth - That's life (Asi es la vida)

Exact Audio Copy V0.99 prebeta 5 from 4. May 2009

EAC extraction logfile from 19. April 2011, 16:59

Various / CDC-Cocooning CD4

Used drive : HL-DT-STDVDRAM GH10N Adapter: 3 ID: 0

Read mode : Secure
Utilize accurate stream : Yes
Defeat audio cache : Yes
Make use of C2 pointers : No

Read offset correction : 667
Overread into Lead-In and Lead-Out : No
Fill up missing offset samples with silence : Yes
Delete leading and trailing silent blocks : No
Null samples used in CRC calculations : Yes
Used interface : Native Win32 interface for Win NT & 2000

Used output format : User Defined Encoder
Selected bitrate : 1024 kBit/s
Quality : High
Add ID3 tag : No
Command line compressor : C:\Program Files\FLAC\flac.exe
Additional command line options : -V -5 -T "artist=%a" -T "title=%t" -T "album=%g" -T "date=%y" -T "tracknumber=%n" -T "genre=%m" -5 %s


TOC of the extracted CD

Track | Start | Length | Start sector | End sector
––––––––––––––––––––––––––––-
1 | 0:00.00 | 3:31.50 | 0 | 15874
2 | 3:31.50 | 3:05.52 | 15875 | 29801
3 | 6:37.27 | 5:19.03 | 29802 | 53729
4 | 11:56.30 | 4:08.19 | 53730 | 72348
5 | 16:04.49 | 5:47.59 | 72349 | 98432
6 | 21:52.33 | 3:52.69 | 98433 | 115901
7 | 25:45.27 | 3:18.34 | 115902 | 130785
8 | 29:03.61 | 3:48.06 | 130786 | 147891
9 | 32:51.67 | 3:22.05 | 147892 | 163046
10 | 36:13.72 | 3:06.41 | 163047 | 177037
11 | 39:20.38 | 4:48.03 | 177038 | 198640
12 | 44:08.41 | 2:53.16 | 198641 | 211631
13 | 47:01.57 | 4:25.21 | 211632 | 231527
14 | 51:27.03 | 5:39.39 | 231528 | 256991
15 | 57:06.42 | 4:03.02 | 256992 | 275218
16 | 61:09.44 | 2:55.19 | 275219 | 288362
17 | 64:04.63 | 2:38.01 | 288363 | 300213
18 | 66:42.64 | 2:50.29 | 300214 | 312992
19 | 69:33.18 | 2:44.30 | 312993 | 325322


Range status and errors

Selected range

Filename U:\EAC Rips\CDC - Cocooning\Coc4AfterDark\Various - CDC-Cocooning CD4.wav

Peak level 98.8 %
Range quality 100.0 %
Test CRC C094AAD1
Copy CRC C094AAD1
Copy OK

No errors occurred


AccurateRip summary

Track 1 not present in database
Track 2 not present in database
Track 3 not present in database
Track 4 not present in database
Track 5 not present in database
Track 6 not present in database
Track 7 not present in database
Track 8 not present in database
Track 9 not present in database
Track 10 not present in database
Track 11 not present in database
Track 12 not present in database
Track 13 not present in database
Track 14 not present in database
Track 15 not present in database
Track 16 not present in database
Track 17 not present in database
Track 18 not present in database
Track 19 not present in database

None of the tracks are present in the AccurateRip database

End of status report


All thanks to original releaser!