Subcategories
Tags
Language
Tags

The Weather Station - Ignorance (2021)

Posted By: delpotro
The Weather Station - Ignorance (2021)

The Weather Station - Ignorance (2021)
EAC Rip | FLAC (tracks+log+.cue) - 263 Mb | MP3 CBR 320 kbps - 99 Mb | 00:40:43
Indie Pop, Indie Folk, Female Vocal | Label: Fat Possum Records

The Weather Station - project of Tamara Lindeman - releases her new album, Ignorance, on Fat Possum. Through Ignorance, Lindeman has remade what The Weather Station sounds like, using the occasion of a new record to create a novel sonic landscape, tailor-made to express an emotional idea. Ignorance is sensuous, ravishing, as hi-fi a record as Lindeman has ever made, breaking into pure pop at moments, at others a dense wilderness of notes; a deeply rhythmic and painful record that feels more urgent and clear than her work ever has. Ignorance began when Lindeman became obsessed with rhythm; specifically straight rhythm, dance rhythm, those achingly simple beats that had never showed up on a Weather Station album before. The album marks Lindeman’s first experience writing on keyboard, not guitar, and her first time building out arrangements before bringing them to a band. Montreal producer Marcus Paquin (Arcade Fire) co-produced, with Lindeman, and also mixed the record. The lyrics across Ignorance roil with conflict. The narrator confronts characters who turn away from love. “I used to be an actor, now I’m a performer,” Lindeman says. In those roles she often finds herself to be the subject of projection, reflecting back the ideas and emotions of others. In turn, the album cover shows Lindeman laying in the woods, wearing a hand made suit covered in mirrors. Throughout Ignorance, she sings of trying to wear the world as a kind of ill fitting, torn garment, dangerously cold; “it does not keep me warm / I cannot ever seem to fasten it” and of walking the streets in it, so disguised and exposed.
Tracklist:
1. Robber (05:20)
2. Atlantic (03:53)
3. Tried to Tell You (03:38)
4. Parking Lot (04:06)
5. Loss (03:36)
6. Separated (03:24)
7. Wear (03:18)
8. Trust (05:00)
9. Heart (03:47)
10. Subdivisions (04:40)

Exact Audio Copy V1.0 beta 3 from 29. August 2011

EAC extraction logfile from 8. February 2021, 10:30

The Weather Station / Ignorance

Used drive : Optiarc DVD RW AD-7190S Adapter: 1 ID: 1

Read mode : Secure
Utilize accurate stream : Yes
Defeat audio cache : Yes
Make use of C2 pointers : No

Read offset correction : 6
Overread into Lead-In and Lead-Out : No
Fill up missing offset samples with silence : Yes
Delete leading and trailing silent blocks : No
Null samples used in CRC calculations : Yes
Used interface : Native Win32 interface for Win NT & 2000
Gap handling : Appended to previous track

Used output format : User Defined Encoder
Selected bitrate : 1024 kBit/s
Quality : High
Add ID3 tag : No
Command line compressor : C:\Program Files (x86)\Exact Audio Copy\Flac\flac.exe
Additional command line options : -8 -V -T "ARTIST=%artist%" -T "TITLE=%title%" -T "ALBUM=%albumtitle%" -T "DATE=%year%" -T "TRACKNUMBER=%tracknr%" -T "GENRE=%genre%" -T "PERFORMER=%albuminterpret%" -T "COMPOSER=%composer%" %haslyrics%–tag-from-file=LYRICS="%lyricsfile%"%haslyrics% -T "ALBUMARTIST=%albumartist%" -T "DISCNUMBER=%cdnumber%" -T "TOTALDISCS=%totalcds%" -T "TOTALTRACKS=%numtracks%" -T "COMMENT=%comment%" %source% -o %dest%


TOC of the extracted CD

Track | Start | Length | Start sector | End sector
––––––––––––––––––––––––––––-
1 | 0:00.00 | 5:20.39 | 0 | 24038
2 | 5:20.39 | 3:53.48 | 24039 | 41561
3 | 9:14.12 | 3:38.45 | 41562 | 57956
4 | 12:52.57 | 4:09.14 | 57957 | 76645
5 | 17:01.71 | 3:33.66 | 76646 | 92686
6 | 20:35.62 | 3:24.60 | 92687 | 108046
7 | 24:00.47 | 3:18.21 | 108047 | 122917
8 | 27:18.68 | 5:00.37 | 122918 | 145454
9 | 32:19.30 | 3:47.71 | 145455 | 162550
10 | 36:07.26 | 4:36.11 | 162551 | 183261


Track 1

Filename N:\New Rips\The Weather Station - 2021 - Ignorance (FP 1746-2)\01 - Robber.wav

Pre-gap length 0:00:02.00

Peak level 99.2 %
Extraction speed 1.1 X
Track quality 100.0 %
Test CRC 723E67C4
Copy CRC 723E67C4
Track not present in AccurateRip database
Copy OK

Track 2

Filename N:\New Rips\The Weather Station - 2021 - Ignorance (FP 1746-2)\02 - Atlantic.wav

Peak level 99.2 %
Extraction speed 1.1 X
Track quality 100.0 %
Test CRC 160C74F8
Copy CRC 160C74F8
Track not present in AccurateRip database
Copy OK

Track 3

Filename N:\New Rips\The Weather Station - 2021 - Ignorance (FP 1746-2)\03 - Tried to Tell You.wav

Peak level 99.2 %
Extraction speed 1.2 X
Track quality 100.0 %
Test CRC A8859ED6
Copy CRC A8859ED6
Track not present in AccurateRip database
Copy OK

Track 4

Filename N:\New Rips\The Weather Station - 2021 - Ignorance (FP 1746-2)\04 - Parking Lot.wav

Peak level 99.2 %
Extraction speed 1.3 X
Track quality 100.0 %
Test CRC DC257D2B
Copy CRC DC257D2B
Track not present in AccurateRip database
Copy OK

Track 5

Filename N:\New Rips\The Weather Station - 2021 - Ignorance (FP 1746-2)\05 - Loss.wav

Peak level 99.2 %
Extraction speed 1.4 X
Track quality 100.0 %
Test CRC 5AC9C386
Copy CRC 5AC9C386
Track not present in AccurateRip database
Copy OK

Track 6

Filename N:\New Rips\The Weather Station - 2021 - Ignorance (FP 1746-2)\06 - Separated.wav

Pre-gap length 0:00:01.37

Peak level 99.2 %
Extraction speed 1.4 X
Track quality 100.0 %
Test CRC F84B6FA9
Copy CRC F84B6FA9
Track not present in AccurateRip database
Copy OK

Track 7

Filename N:\New Rips\The Weather Station - 2021 - Ignorance (FP 1746-2)\07 - Wear.wav

Pre-gap length 0:00:01.16

Peak level 99.2 %
Extraction speed 1.5 X
Track quality 100.0 %
Test CRC 2687D007
Copy CRC 2687D007
Track not present in AccurateRip database
Copy OK

Track 8

Filename N:\New Rips\The Weather Station - 2021 - Ignorance (FP 1746-2)\08 - Trust.wav

Pre-gap length 0:00:01.00

Peak level 99.2 %
Extraction speed 1.7 X
Track quality 100.0 %
Test CRC F383B7A9
Copy CRC F383B7A9
Track not present in AccurateRip database
Copy OK

Track 9

Filename N:\New Rips\The Weather Station - 2021 - Ignorance (FP 1746-2)\09 - Heart.wav

Peak level 99.2 %
Extraction speed 7.1 X
Track quality 100.0 %
Test CRC 1B880340
Copy CRC 1B880340
Track not present in AccurateRip database
Copy OK

Track 10

Filename N:\New Rips\The Weather Station - 2021 - Ignorance (FP 1746-2)\10 - Subdivisions.wav

Pre-gap length 0:00:01.69

Peak level 99.2 %
Extraction speed 7.6 X
Track quality 100.0 %
Test CRC 1D425B9B
Copy CRC 1D425B9B
Track not present in AccurateRip database
Copy OK


None of the tracks are present in the AccurateRip database

No errors occurred

End of status report

–– CUETools DB Plugin V2.1.3

[CTDB TOCID: eo7NNQ_2C6IHy.hHEMkxpblW3kI-] disk not present in database, Submit result: eo7NNQ_2C6IHy.hHEMkxpblW3kI- has been uploaded


==== Log checksum FF9AE0A35E98850999C1755F8AF149024D4C6ED6BAEB391B31D8C8FBE7663C77 ====

Thanks to the Original ripper !