Subcategories
Tags
Language
Tags

The Rolling Stones - Bridges to Buenos Aires (2019)

Posted By: delpotro
The Rolling Stones - Bridges to Buenos Aires (2019)

The Rolling Stones - Bridges to Buenos Aires (2019)
EAC Rip | FLAC (tracks+log+.cue) - 894 Mb | Scans - 146 Mb | 02:05:54
Blues Rock, Classic Rock | Label: Eagle Rock Entertainment

Bridges To Buenos Aires is the latest concert film release from The Rolling Stones’ archive. The full-length show from their five night sell-out residency at the River Plate Stadium in Argentina’s capital city has been restored in full, and features a very special guest appearance from Bob Dylan. Filmed on April 5th 1998, by this point, the band had played to over two million people on the first two legs of the tour in North America and Japan. Amongst many highlights in this show, special guest Bob Dylan joins the band onstage at River Plate for a unique performance of his classic ‘Like A Rolling Stone’. The band only played a further two dates in South America on the triumphant, year long Bridges To Babylon tour, before they headed back to North America, and Europe.
Tracklist:
1. (I Can't Get No) Satisfaction (Live) (05:19)
2. Let's Spend the Night Together (Live) (04:05)
3. Flip the Switch (Live) (04:03)
4. Gimme Shelter (Live) (06:37)
5. Sister Morphine (Live) (06:19)
6. It's Only Rock 'N' Roll (But I Like It) [Live] (04:39)
7. Saint of Me (Live) (05:13)
8. Out of Control (Live) (07:31)
9. Miss You (Live) (09:53)
10. Like a Rolling Stone (feat. Bob Dylan) [Live] (06:25)
11. Thief In the Night (Live) (06:28)
12. Wanna Hold You (Live) (04:46)
13. Little Queenie (Live) (04:18)
14. When the Whip Comes Down (Live) (03:52)
15. You Got Me Rocking (Live) (03:13)
16. Sympathy For the Devil (Live) (08:11)
17. Tumbling Dice (Live) (05:56)
18. Honky Tonk Women (Live) (04:50)
19. Start Me Up (Live) (04:20)
20. Jumpin’ Jack Flash (Live) (06:58)
21. You Can't Always Get What You Want (Live) (05:48)
22. Brown Sugar (Live) (06:59)

Exact Audio Copy V1.3 from 2. September 2016

EAC extraction logfile from 2. December 2019, 13:52

The Rolling Stones / Bridges To Buenos Aires

Used drive : PLEXTOR PX-891SAF Adapter: 1 ID: 0

Read mode : Secure
Utilize accurate stream : Yes
Defeat audio cache : Yes
Make use of C2 pointers : No

Read offset correction : 6
Overread into Lead-In and Lead-Out : No
Fill up missing offset samples with silence : Yes
Delete leading and trailing silent blocks : No
Null samples used in CRC calculations : Yes
Used interface : Native Win32 interface for Win NT & 2000
Gap handling : Appended to previous track

Used output format : User Defined Encoder
Selected bitrate : 1024 kBit/s
Quality : High
Add ID3 tag : No
Command line compressor : C:\Program Files (x86)\Exact Audio Copy\Flac\flac.exe
Additional command line options : -8 -V -T "ARTIST=%artist%" -T "TITLE=%title%" -T "ALBUM=%albumtitle%" -T "DATE=%year%" -T "TRACKNUMBER=%tracknr%" -T "GENRE=%genre%" -T "PERFORMER=%albuminterpret%" -T "COMPOSER=%composer%" %haslyrics%–tag-from-file=LYRICS="%lyricsfile%"%haslyrics% -T "ALBUMARTIST=%albumartist%" -T "DISCNUMBER=%cdnumber%" -T "TOTALDISCS=%totalcds%" -T "TOTALTRACKS=%numtracks%" -T "COMMENT=%comment%" %source% -o %dest%


TOC of the extracted CD

Track | Start | Length | Start sector | End sector
––––––––––––––––––––––––––––-
1 | 0:00.00 | 5:20.33 | 0 | 24032
2 | 5:20.33 | 4:05.37 | 24033 | 42444
3 | 9:25.70 | 4:03.68 | 42445 | 60737
4 | 13:29.63 | 6:37.29 | 60738 | 90541
5 | 20:07.17 | 6:19.60 | 90542 | 119026
6 | 26:27.02 | 4:39.09 | 119027 | 139960
7 | 31:06.11 | 5:13.69 | 139961 | 163504
8 | 36:20.05 | 7:31.29 | 163505 | 197358
9 | 43:51.34 | 9:53.64 | 197359 | 241897
10 | 53:45.23 | 6:25.29 | 241898 | 270801
11 | 60:10.52 | 6:19.55 | 270802 | 299281


Track 1

Filename D:\#cdr\#wav+flac\The Rolling Stones - Bridges To Buenos Aires\cd 1\01. The Rolling Stones - (I Can’T Get No) Satisfaction.wav

Pre-gap length 0:00:02.00

Peak level 98.5 %
Extraction speed 5.2 X
Track quality 100.0 %
Test CRC 70C3D561
Copy CRC 70C3D561
Track not present in AccurateRip database
Copy OK

Track 2

Filename D:\#cdr\#wav+flac\The Rolling Stones - Bridges To Buenos Aires\cd 1\02. The Rolling Stones - Let’S Spend The Night Together.wav

Peak level 98.8 %
Extraction speed 5.7 X
Track quality 100.0 %
Test CRC B8A4C7B5
Copy CRC B8A4C7B5
Track not present in AccurateRip database
Copy OK

Track 3

Filename D:\#cdr\#wav+flac\The Rolling Stones - Bridges To Buenos Aires\cd 1\03. The Rolling Stones - Flip The Switch.wav

Peak level 98.8 %
Extraction speed 6.1 X
Track quality 100.0 %
Test CRC 52D5B2DC
Copy CRC 52D5B2DC
Track not present in AccurateRip database
Copy OK

Track 4

Filename D:\#cdr\#wav+flac\The Rolling Stones - Bridges To Buenos Aires\cd 1\04. The Rolling Stones - Gimme Shelter.wav

Peak level 89.4 %
Extraction speed 6.2 X
Track quality 99.9 %
Test CRC 17436297
Copy CRC 17436297
Track not present in AccurateRip database
Copy OK

Track 5

Filename D:\#cdr\#wav+flac\The Rolling Stones - Bridges To Buenos Aires\cd 1\05. The Rolling Stones - Sister Morphine.wav

Peak level 88.9 %
Extraction speed 6.7 X
Track quality 99.9 %
Test CRC CCD98B12
Copy CRC CCD98B12
Track not present in AccurateRip database
Copy OK

Track 6

Filename D:\#cdr\#wav+flac\The Rolling Stones - Bridges To Buenos Aires\cd 1\06. The Rolling Stones - It’S Only Rock ’N’ Roll (But I Like It).wav

Peak level 93.8 %
Extraction speed 7.8 X
Track quality 100.0 %
Test CRC 59160C87
Copy CRC 59160C87
Track not present in AccurateRip database
Copy OK

Track 7

Filename D:\#cdr\#wav+flac\The Rolling Stones - Bridges To Buenos Aires\cd 1\07. The Rolling Stones - Saint Of Me.wav

Peak level 89.4 %
Extraction speed 8.2 X
Track quality 100.0 %
Test CRC 9632198B
Copy CRC 9632198B
Track not present in AccurateRip database
Copy OK

Track 8

Filename D:\#cdr\#wav+flac\The Rolling Stones - Bridges To Buenos Aires\cd 1\08. The Rolling Stones - Out Of Control.wav

Peak level 88.6 %
Extraction speed 9.0 X
Track quality 100.0 %
Test CRC 84FD2BEF
Copy CRC 84FD2BEF
Track not present in AccurateRip database
Copy OK

Track 9

Filename D:\#cdr\#wav+flac\The Rolling Stones - Bridges To Buenos Aires\cd 1\09. The Rolling Stones - Miss You.wav

Peak level 88.3 %
Extraction speed 9.7 X
Track quality 100.0 %
Test CRC 44161844
Copy CRC 44161844
Track not present in AccurateRip database
Copy OK

Track 10

Filename D:\#cdr\#wav+flac\The Rolling Stones - Bridges To Buenos Aires\cd 1\10. The Rolling Stones Feat. Bob Dylan - Like A Rolling Stone.wav

Peak level 96.8 %
Extraction speed 10.0 X
Track quality 100.0 %
Test CRC F8747164
Copy CRC F8747164
Track not present in AccurateRip database
Copy OK

Track 11

Filename D:\#cdr\#wav+flac\The Rolling Stones - Bridges To Buenos Aires\cd 1\11. The Rolling Stones - Thief In The Night.wav

Peak level 88.4 %
Extraction speed 10.3 X
Track quality 100.0 %
Test CRC 6BE05630
Copy CRC 6BE05630
Track not present in AccurateRip database
Copy OK


None of the tracks are present in the AccurateRip database

No errors occurred

End of status report

–– CUETools DB Plugin V2.1.6

[CTDB TOCID: WjFGxu43aOlGI923b2gHO2XlfxY-] found
Submit result: WjFGxu43aOlGI923b2gHO2XlfxY- has been confirmed
Track | CTDB Status
1 | (33/33) Accurately ripped
2 | (33/33) Accurately ripped
3 | (33/33) Accurately ripped
4 | (33/33) Accurately ripped
5 | (33/33) Accurately ripped
6 | (33/33) Accurately ripped
7 | (33/33) Accurately ripped
8 | (33/33) Accurately ripped
9 | (33/33) Accurately ripped
10 | (33/33) Accurately ripped
11 | (32/33) Accurately ripped


==== Log checksum 47C42588231A9FBB09DE1389F9C17FBA18E0D019A4A2D12446F3ED738A4C67C2 ====

––––––––––––––––––––––––––––––

Exact Audio Copy V1.3 from 2. September 2016

EAC extraction logfile from 2. December 2019, 13:52

The Rolling Stones / Bridges To Buenos Aires

Used drive : PLEXTOR PX-891SAF Adapter: 1 ID: 0

Read mode : Secure
Utilize accurate stream : Yes
Defeat audio cache : Yes
Make use of C2 pointers : No

Read offset correction : 6
Overread into Lead-In and Lead-Out : No
Fill up missing offset samples with silence : Yes
Delete leading and trailing silent blocks : No
Null samples used in CRC calculations : Yes
Used interface : Native Win32 interface for Win NT & 2000
Gap handling : Appended to previous track

Used output format : User Defined Encoder
Selected bitrate : 1024 kBit/s
Quality : High
Add ID3 tag : No
Command line compressor : C:\Program Files (x86)\Exact Audio Copy\Flac\flac.exe
Additional command line options : -8 -V -T "ARTIST=%artist%" -T "TITLE=%title%" -T "ALBUM=%albumtitle%" -T "DATE=%year%" -T "TRACKNUMBER=%tracknr%" -T "GENRE=%genre%" -T "PERFORMER=%albuminterpret%" -T "COMPOSER=%composer%" %haslyrics%–tag-from-file=LYRICS="%lyricsfile%"%haslyrics% -T "ALBUMARTIST=%albumartist%" -T "DISCNUMBER=%cdnumber%" -T "TOTALDISCS=%totalcds%" -T "TOTALTRACKS=%numtracks%" -T "COMMENT=%comment%" %source% -o %dest%


TOC of the extracted CD

Track | Start | Length | Start sector | End sector
––––––––––––––––––––––––––––-
1 | 0:00.00 | 5:20.33 | 0 | 24032
2 | 5:20.33 | 4:05.37 | 24033 | 42444
3 | 9:25.70 | 4:03.68 | 42445 | 60737
4 | 13:29.63 | 6:37.29 | 60738 | 90541
5 | 20:07.17 | 6:19.60 | 90542 | 119026
6 | 26:27.02 | 4:39.09 | 119027 | 139960
7 | 31:06.11 | 5:13.69 | 139961 | 163504
8 | 36:20.05 | 7:31.29 | 163505 | 197358
9 | 43:51.34 | 9:53.64 | 197359 | 241897
10 | 53:45.23 | 6:25.29 | 241898 | 270801
11 | 60:10.52 | 6:19.55 | 270802 | 299281


Track 1

Filename D:\#cdr\#wav+flac\The Rolling Stones - Bridges To Buenos Aires\cd 1\01. The Rolling Stones - (I Can’T Get No) Satisfaction.wav

Pre-gap length 0:00:02.00

Peak level 98.5 %
Extraction speed 5.2 X
Track quality 100.0 %
Test CRC 70C3D561
Copy CRC 70C3D561
Track not present in AccurateRip database
Copy OK

Track 2

Filename D:\#cdr\#wav+flac\The Rolling Stones - Bridges To Buenos Aires\cd 1\02. The Rolling Stones - Let’S Spend The Night Together.wav

Peak level 98.8 %
Extraction speed 5.7 X
Track quality 100.0 %
Test CRC B8A4C7B5
Copy CRC B8A4C7B5
Track not present in AccurateRip database
Copy OK

Track 3

Filename D:\#cdr\#wav+flac\The Rolling Stones - Bridges To Buenos Aires\cd 1\03. The Rolling Stones - Flip The Switch.wav

Peak level 98.8 %
Extraction speed 6.1 X
Track quality 100.0 %
Test CRC 52D5B2DC
Copy CRC 52D5B2DC
Track not present in AccurateRip database
Copy OK

Track 4

Filename D:\#cdr\#wav+flac\The Rolling Stones - Bridges To Buenos Aires\cd 1\04. The Rolling Stones - Gimme Shelter.wav

Peak level 89.4 %
Extraction speed 6.2 X
Track quality 99.9 %
Test CRC 17436297
Copy CRC 17436297
Track not present in AccurateRip database
Copy OK

Track 5

Filename D:\#cdr\#wav+flac\The Rolling Stones - Bridges To Buenos Aires\cd 1\05. The Rolling Stones - Sister Morphine.wav

Peak level 88.9 %
Extraction speed 6.7 X
Track quality 99.9 %
Test CRC CCD98B12
Copy CRC CCD98B12
Track not present in AccurateRip database
Copy OK

Track 6

Filename D:\#cdr\#wav+flac\The Rolling Stones - Bridges To Buenos Aires\cd 1\06. The Rolling Stones - It’S Only Rock ’N’ Roll (But I Like It).wav

Peak level 93.8 %
Extraction speed 7.8 X
Track quality 100.0 %
Test CRC 59160C87
Copy CRC 59160C87
Track not present in AccurateRip database
Copy OK

Track 7

Filename D:\#cdr\#wav+flac\The Rolling Stones - Bridges To Buenos Aires\cd 1\07. The Rolling Stones - Saint Of Me.wav

Peak level 89.4 %
Extraction speed 8.2 X
Track quality 100.0 %
Test CRC 9632198B
Copy CRC 9632198B
Track not present in AccurateRip database
Copy OK

Track 8

Filename D:\#cdr\#wav+flac\The Rolling Stones - Bridges To Buenos Aires\cd 1\08. The Rolling Stones - Out Of Control.wav

Peak level 88.6 %
Extraction speed 9.0 X
Track quality 100.0 %
Test CRC 84FD2BEF
Copy CRC 84FD2BEF
Track not present in AccurateRip database
Copy OK

Track 9

Filename D:\#cdr\#wav+flac\The Rolling Stones - Bridges To Buenos Aires\cd 1\09. The Rolling Stones - Miss You.wav

Peak level 88.3 %
Extraction speed 9.7 X
Track quality 100.0 %
Test CRC 44161844
Copy CRC 44161844
Track not present in AccurateRip database
Copy OK

Track 10

Filename D:\#cdr\#wav+flac\The Rolling Stones - Bridges To Buenos Aires\cd 1\10. The Rolling Stones Feat. Bob Dylan - Like A Rolling Stone.wav

Peak level 96.8 %
Extraction speed 10.0 X
Track quality 100.0 %
Test CRC F8747164
Copy CRC F8747164
Track not present in AccurateRip database
Copy OK

Track 11

Filename D:\#cdr\#wav+flac\The Rolling Stones - Bridges To Buenos Aires\cd 1\11. The Rolling Stones - Thief In The Night.wav

Peak level 88.4 %
Extraction speed 10.3 X
Track quality 100.0 %
Test CRC 6BE05630
Copy CRC 6BE05630
Track not present in AccurateRip database
Copy OK


None of the tracks are present in the AccurateRip database

No errors occurred

End of status report

–– CUETools DB Plugin V2.1.6

[CTDB TOCID: WjFGxu43aOlGI923b2gHO2XlfxY-] found
Submit result: WjFGxu43aOlGI923b2gHO2XlfxY- has been confirmed
Track | CTDB Status
1 | (33/33) Accurately ripped
2 | (33/33) Accurately ripped
3 | (33/33) Accurately ripped
4 | (33/33) Accurately ripped
5 | (33/33) Accurately ripped
6 | (33/33) Accurately ripped
7 | (33/33) Accurately ripped
8 | (33/33) Accurately ripped
9 | (33/33) Accurately ripped
10 | (33/33) Accurately ripped
11 | (32/33) Accurately ripped


==== Log checksum 47C42588231A9FBB09DE1389F9C17FBA18E0D019A4A2D12446F3ED738A4C67C2 ====
Exact Audio Copy V1.3 from 2. September 2016

EAC extraction logfile from 2. December 2019, 14:11

The Rolling Stones / Bridges to Buenos Aires

Used drive : PLEXTOR PX-891SAF Adapter: 1 ID: 0

Read mode : Secure
Utilize accurate stream : Yes
Defeat audio cache : Yes
Make use of C2 pointers : No

Read offset correction : 6
Overread into Lead-In and Lead-Out : No
Fill up missing offset samples with silence : Yes
Delete leading and trailing silent blocks : No
Null samples used in CRC calculations : Yes
Used interface : Native Win32 interface for Win NT & 2000
Gap handling : Appended to previous track

Used output format : User Defined Encoder
Selected bitrate : 1024 kBit/s
Quality : High
Add ID3 tag : No
Command line compressor : C:\Program Files (x86)\Exact Audio Copy\Flac\flac.exe
Additional command line options : -8 -V -T "ARTIST=%artist%" -T "TITLE=%title%" -T "ALBUM=%albumtitle%" -T "DATE=%year%" -T "TRACKNUMBER=%tracknr%" -T "GENRE=%genre%" -T "PERFORMER=%albuminterpret%" -T "COMPOSER=%composer%" %haslyrics%–tag-from-file=LYRICS="%lyricsfile%"%haslyrics% -T "ALBUMARTIST=%albumartist%" -T "DISCNUMBER=%cdnumber%" -T "TOTALDISCS=%totalcds%" -T "TOTALTRACKS=%numtracks%" -T "COMMENT=%comment%" %source% -o %dest%


TOC of the extracted CD

Track | Start | Length | Start sector | End sector
––––––––––––––––––––––––––––-
1 | 0:00.00 | 4:52.64 | 0 | 21963
2 | 4:52.64 | 4:18.43 | 21964 | 41356
3 | 9:11.32 | 3:52.48 | 41357 | 58804
4 | 13:04.05 | 3:13.42 | 58805 | 73321
5 | 16:17.47 | 8:11.33 | 73322 | 110179
6 | 24:29.05 | 5:56.41 | 110180 | 136920
7 | 30:25.46 | 4:50.29 | 136921 | 158699
8 | 35:16.00 | 4:20.06 | 158700 | 178205
9 | 39:36.06 | 6:58.19 | 178206 | 209574
10 | 46:34.25 | 5:48.01 | 209575 | 235675
11 | 52:22.26 | 7:01.29 | 235676 | 267279


Track 1

Filename D:\#cdr\#wav+flac\The Rolling Stones - Bridges To Buenos Aires\cd 2\01. The Rolling Stones - Wanna Hold You.wav

Pre-gap length 0:00:02.00

Peak level 98.8 %
Extraction speed 5.2 X
Track quality 100.0 %
Test CRC 4430AC28
Copy CRC 4430AC28
Track not present in AccurateRip database
Copy OK

Track 2

Filename D:\#cdr\#wav+flac\The Rolling Stones - Bridges To Buenos Aires\cd 2\02. The Rolling Stones - Little Queenie.wav

Peak level 98.9 %
Extraction speed 5.9 X
Track quality 100.0 %
Test CRC 3F0FD2C6
Copy CRC 3F0FD2C6
Track not present in AccurateRip database
Copy OK

Track 3

Filename D:\#cdr\#wav+flac\The Rolling Stones - Bridges To Buenos Aires\cd 2\03. The Rolling Stones - When the Whip Comes Down.wav

Peak level 88.3 %
Extraction speed 6.2 X
Track quality 100.0 %
Test CRC 43868570
Copy CRC 43868570
Track not present in AccurateRip database
Copy OK

Track 4

Filename D:\#cdr\#wav+flac\The Rolling Stones - Bridges To Buenos Aires\cd 2\04. The Rolling Stones - You Got Me Rocking.wav

Peak level 96.8 %
Extraction speed 5.2 X
Track quality 99.9 %
Test CRC 71B05F36
Copy CRC 71B05F36
Track not present in AccurateRip database
Copy OK

Track 5

Filename D:\#cdr\#wav+flac\The Rolling Stones - Bridges To Buenos Aires\cd 2\05. The Rolling Stones - Sympathy for the Devil.wav

Peak level 97.7 %
Extraction speed 7.7 X
Track quality 100.0 %
Test CRC 5BBDD252
Copy CRC 5BBDD252
Track not present in AccurateRip database
Copy OK

Track 6

Filename D:\#cdr\#wav+flac\The Rolling Stones - Bridges To Buenos Aires\cd 2\06. The Rolling Stones - Tumbling Dice.wav

Peak level 95.1 %
Extraction speed 7.1 X
Track quality 99.9 %
Test CRC 8B6C1386
Copy CRC 8B6C1386
Track not present in AccurateRip database
Copy OK

Track 7

Filename D:\#cdr\#wav+flac\The Rolling Stones - Bridges To Buenos Aires\cd 2\07. The Rolling Stones - Honky Tonk Women.wav

Peak level 93.4 %
Extraction speed 8.5 X
Track quality 100.0 %
Test CRC 022B2050
Copy CRC 022B2050
Track not present in AccurateRip database
Copy OK

Track 8

Filename D:\#cdr\#wav+flac\The Rolling Stones - Bridges To Buenos Aires\cd 2\08. The Rolling Stones - Start Me Up.wav

Peak level 96.5 %
Extraction speed 8.7 X
Track quality 100.0 %
Test CRC 9B78487C
Copy CRC 9B78487C
Track not present in AccurateRip database
Copy OK

Track 9

Filename D:\#cdr\#wav+flac\The Rolling Stones - Bridges To Buenos Aires\cd 2\09. The Rolling Stones - Jumpin’ Jack Flash.wav

Peak level 98.8 %
Extraction speed 9.6 X
Track quality 100.0 %
Test CRC 6A135C59
Copy CRC 6A135C59
Track not present in AccurateRip database
Copy OK

Track 10

Filename D:\#cdr\#wav+flac\The Rolling Stones - Bridges To Buenos Aires\cd 2\10. The Rolling Stones - You Can’t Always Get What You Want.wav

Peak level 98.8 %
Extraction speed 9.9 X
Track quality 100.0 %
Test CRC 8309132C
Copy CRC 8309132C
Track not present in AccurateRip database
Copy OK

Track 11

Filename D:\#cdr\#wav+flac\The Rolling Stones - Bridges To Buenos Aires\cd 2\11. The Rolling Stones - Brown Sugar.wav

Peak level 88.8 %
Extraction speed 10.5 X
Track quality 100.0 %
Test CRC A73515FF
Copy CRC A73515FF
Track not present in AccurateRip database
Copy OK


None of the tracks are present in the AccurateRip database

No errors occurred

End of status report

–– CUETools DB Plugin V2.1.6

[CTDB TOCID: Tko3R255T8RnScXTC4WgUNl41u0-] found
Submit result: Tko3R255T8RnScXTC4WgUNl41u0- has been confirmed
Track | CTDB Status
1 | (30/30) Accurately ripped
2 | (30/30) Accurately ripped
3 | (30/30) Accurately ripped
4 | (30/30) Accurately ripped
5 | (30/30) Accurately ripped
6 | (30/30) Accurately ripped
7 | (30/30) Accurately ripped
8 | (30/30) Accurately ripped
9 | (30/30) Accurately ripped
10 | (30/30) Accurately ripped
11 | (29/30) Accurately ripped


==== Log checksum CD69079130E15F00EB3B0AAC9A1126A33E92FD2A9247AB95445518848E523AD5 ====

––––––––––––––––––––––––––––––

Exact Audio Copy V1.3 from 2. September 2016

EAC extraction logfile from 2. December 2019, 14:11

The Rolling Stones / Bridges to Buenos Aires

Used drive : PLEXTOR PX-891SAF Adapter: 1 ID: 0

Read mode : Secure
Utilize accurate stream : Yes
Defeat audio cache : Yes
Make use of C2 pointers : No

Read offset correction : 6
Overread into Lead-In and Lead-Out : No
Fill up missing offset samples with silence : Yes
Delete leading and trailing silent blocks : No
Null samples used in CRC calculations : Yes
Used interface : Native Win32 interface for Win NT & 2000
Gap handling : Appended to previous track

Used output format : User Defined Encoder
Selected bitrate : 1024 kBit/s
Quality : High
Add ID3 tag : No
Command line compressor : C:\Program Files (x86)\Exact Audio Copy\Flac\flac.exe
Additional command line options : -8 -V -T "ARTIST=%artist%" -T "TITLE=%title%" -T "ALBUM=%albumtitle%" -T "DATE=%year%" -T "TRACKNUMBER=%tracknr%" -T "GENRE=%genre%" -T "PERFORMER=%albuminterpret%" -T "COMPOSER=%composer%" %haslyrics%–tag-from-file=LYRICS="%lyricsfile%"%haslyrics% -T "ALBUMARTIST=%albumartist%" -T "DISCNUMBER=%cdnumber%" -T "TOTALDISCS=%totalcds%" -T "TOTALTRACKS=%numtracks%" -T "COMMENT=%comment%" %source% -o %dest%


TOC of the extracted CD

Track | Start | Length | Start sector | End sector
––––––––––––––––––––––––––––-
1 | 0:00.00 | 4:52.64 | 0 | 21963
2 | 4:52.64 | 4:18.43 | 21964 | 41356
3 | 9:11.32 | 3:52.48 | 41357 | 58804
4 | 13:04.05 | 3:13.42 | 58805 | 73321
5 | 16:17.47 | 8:11.33 | 73322 | 110179
6 | 24:29.05 | 5:56.41 | 110180 | 136920
7 | 30:25.46 | 4:50.29 | 136921 | 158699
8 | 35:16.00 | 4:20.06 | 158700 | 178205
9 | 39:36.06 | 6:58.19 | 178206 | 209574
10 | 46:34.25 | 5:48.01 | 209575 | 235675
11 | 52:22.26 | 7:01.29 | 235676 | 267279


Track 1

Filename D:\#cdr\#wav+flac\The Rolling Stones - Bridges To Buenos Aires\cd 2\01. The Rolling Stones - Wanna Hold You.wav

Pre-gap length 0:00:02.00

Peak level 98.8 %
Extraction speed 5.2 X
Track quality 100.0 %
Test CRC 4430AC28
Copy CRC 4430AC28
Track not present in AccurateRip database
Copy OK

Track 2

Filename D:\#cdr\#wav+flac\The Rolling Stones - Bridges To Buenos Aires\cd 2\02. The Rolling Stones - Little Queenie.wav

Peak level 98.9 %
Extraction speed 5.9 X
Track quality 100.0 %
Test CRC 3F0FD2C6
Copy CRC 3F0FD2C6
Track not present in AccurateRip database
Copy OK

Track 3

Filename D:\#cdr\#wav+flac\The Rolling Stones - Bridges To Buenos Aires\cd 2\03. The Rolling Stones - When the Whip Comes Down.wav

Peak level 88.3 %
Extraction speed 6.2 X
Track quality 100.0 %
Test CRC 43868570
Copy CRC 43868570
Track not present in AccurateRip database
Copy OK

Track 4

Filename D:\#cdr\#wav+flac\The Rolling Stones - Bridges To Buenos Aires\cd 2\04. The Rolling Stones - You Got Me Rocking.wav

Peak level 96.8 %
Extraction speed 5.2 X
Track quality 99.9 %
Test CRC 71B05F36
Copy CRC 71B05F36
Track not present in AccurateRip database
Copy OK

Track 5

Filename D:\#cdr\#wav+flac\The Rolling Stones - Bridges To Buenos Aires\cd 2\05. The Rolling Stones - Sympathy for the Devil.wav

Peak level 97.7 %
Extraction speed 7.7 X
Track quality 100.0 %
Test CRC 5BBDD252
Copy CRC 5BBDD252
Track not present in AccurateRip database
Copy OK

Track 6

Filename D:\#cdr\#wav+flac\The Rolling Stones - Bridges To Buenos Aires\cd 2\06. The Rolling Stones - Tumbling Dice.wav

Peak level 95.1 %
Extraction speed 7.1 X
Track quality 99.9 %
Test CRC 8B6C1386
Copy CRC 8B6C1386
Track not present in AccurateRip database
Copy OK

Track 7

Filename D:\#cdr\#wav+flac\The Rolling Stones - Bridges To Buenos Aires\cd 2\07. The Rolling Stones - Honky Tonk Women.wav

Peak level 93.4 %
Extraction speed 8.5 X
Track quality 100.0 %
Test CRC 022B2050
Copy CRC 022B2050
Track not present in AccurateRip database
Copy OK

Track 8

Filename D:\#cdr\#wav+flac\The Rolling Stones - Bridges To Buenos Aires\cd 2\08. The Rolling Stones - Start Me Up.wav

Peak level 96.5 %
Extraction speed 8.7 X
Track quality 100.0 %
Test CRC 9B78487C
Copy CRC 9B78487C
Track not present in AccurateRip database
Copy OK

Track 9

Filename D:\#cdr\#wav+flac\The Rolling Stones - Bridges To Buenos Aires\cd 2\09. The Rolling Stones - Jumpin’ Jack Flash.wav

Peak level 98.8 %
Extraction speed 9.6 X
Track quality 100.0 %
Test CRC 6A135C59
Copy CRC 6A135C59
Track not present in AccurateRip database
Copy OK

Track 10

Filename D:\#cdr\#wav+flac\The Rolling Stones - Bridges To Buenos Aires\cd 2\10. The Rolling Stones - You Can’t Always Get What You Want.wav

Peak level 98.8 %
Extraction speed 9.9 X
Track quality 100.0 %
Test CRC 8309132C
Copy CRC 8309132C
Track not present in AccurateRip database
Copy OK

Track 11

Filename D:\#cdr\#wav+flac\The Rolling Stones - Bridges To Buenos Aires\cd 2\11. The Rolling Stones - Brown Sugar.wav

Peak level 88.8 %
Extraction speed 10.5 X
Track quality 100.0 %
Test CRC A73515FF
Copy CRC A73515FF
Track not present in AccurateRip database
Copy OK


None of the tracks are present in the AccurateRip database

No errors occurred

End of status report

–– CUETools DB Plugin V2.1.6

[CTDB TOCID: Tko3R255T8RnScXTC4WgUNl41u0-] found
Submit result: Tko3R255T8RnScXTC4WgUNl41u0- has been confirmed
Track | CTDB Status
1 | (30/30) Accurately ripped
2 | (30/30) Accurately ripped
3 | (30/30) Accurately ripped
4 | (30/30) Accurately ripped
5 | (30/30) Accurately ripped
6 | (30/30) Accurately ripped
7 | (30/30) Accurately ripped
8 | (30/30) Accurately ripped
9 | (30/30) Accurately ripped
10 | (30/30) Accurately ripped
11 | (29/30) Accurately ripped


==== Log checksum CD69079130E15F00EB3B0AAC9A1126A33E92FD2A9247AB95445518848E523AD5 ====

Thanks to the Original ripper !