Subcategories

Soloists of Cappella Neapolitana & Adriano Fazio - Invisible: Cello Concertos of Porpora, Monn & Haydn (2017)

Posted By: delpotro
Soloists of Cappella Neapolitana & Adriano Fazio - Invisible: Cello Concertos of Porpora, Monn & Haydn (2017)

Soloists of Cappella Neapolitana & Adriano Fazio - Invisible: Cello Concertos of Porpora, Monn & Haydn (2017)
EAC Rip | FLAC (tracks+log+.cue) - 318 Mb | MP3 CBR 320 kbps - 151 Mb | Digital booklet | 01:04:49
Classical | Label: Brilliant Classics

This new recording presents three Cello Concertos originated from the two Capitals of classical music at the time: Naples and Vienna.

Nicola Porpora (Naples 1686‐1768) and Georg Matthias Monn (Vienna 1717‐1750) were both transitory musical figures, rooted in the Baroque, they introduced the Galant Style: cantabile melodies embedded in baroque forms, paving the way for the classical style of Haydn, the genius of Viennese Classicism.

Excellent historically informed performance by young Italian cellist Adriano Fazio, who already released a successful recording for Brilliant Classics (BC95408) of Cello Sonatas by Porpora: “Adriano Fazio and Kataryna Solecka play with a lovely rapport and with an easy lyricism and musicality, conveying well their justified enthusiasm for this expressive and original music” (Early Music Review). The Cappella Neapolitana is specialized in unearthing musical treasures from Naples, and play on period instruments.
Tracklist:
1. Cello Concerto in G Major: I. Adagio (05:33)
2. Cello Concerto in G Major: II. Allegro (04:20)
3. Cello Concerto in G Major: III. Adagio (04:21)
4. Cello Concerto in G Major: IV. Allegro (04:38)
5. Cello Concerto in G Minor: I. Allegro moderato (06:33)
6. Cello Concerto in G Minor: II. Adagio (08:30)
7. Cello Concerto in G Minor: III. Allegro non tanto (05:19)
8. Cello Concerto No. 1 in C Major, Hob. VIIb:1: I. Moderato (09:43)
9. Cello Concerto No. 1 in C Major, Hob. VIIb:1: II. Adagio (08:51)
10. Cello Concerto No. 1 in C Major, Hob. VIIb:1: III. Finale. Allegro molto (07:01)

Exact Audio Copy V1.3 from 2. September 2016

EAC extraction logfile from 26. August 2020, 19:28

Adriano Maria Fazio, Soloists of Capella Neapolitana / Invisibile - Cello Concertos

Used drive : HL-DT-STDVDRAM GH24NSD1 Adapter: 1 ID: 1

Read mode : Secure
Utilize accurate stream : Yes
Defeat audio cache : Yes
Make use of C2 pointers : No

Read offset correction : 6
Overread into Lead-In and Lead-Out : No
Fill up missing offset samples with silence : Yes
Delete leading and trailing silent blocks : No
Null samples used in CRC calculations : Yes
Used interface : Native Win32 interface for Win NT & 2000
Gap handling : Appended to previous track

Used output format : User Defined Encoder
Selected bitrate : 1024 kBit/s
Quality : High
Add ID3 tag : No
Command line compressor : C:\Program Files (x86)\Exact Audio Copy\Flac\flac.exe
Additional command line options : -8 -V -T "ARTIST=%artist%" -T "TITLE=%title%" -T "ALBUM=%albumtitle%" -T "DATE=%year%" -T "TRACKNUMBER=%tracknr%" -T "GENRE=%genre%" -T "PERFORMER=%albuminterpret%" -T "COMPOSER=%composer%" %haslyrics%–tag-from-file=LYRICS="%lyricsfile%"%haslyrics% -T "ALBUMARTIST=%albumartist%" -T "DISCNUMBER=%cdnumber%" -T "TOTALDISCS=%totalcds%" -T "TOTALTRACKS=%numtracks%" -T "COMMENT=%comment%" %source% -o %dest%


TOC of the extracted CD

Track | Start | Length | Start sector | End sector
––––––––––––––––––––––––––––-
1 | 0:00.00 | 5:35.41 | 0 | 25165
2 | 5:35.41 | 4:20.00 | 25166 | 44665
3 | 9:55.41 | 4:21.00 | 44666 | 64240
4 | 14:16.41 | 4:38.08 | 64241 | 85098
5 | 18:54.49 | 6:33.00 | 85099 | 114573
6 | 25:27.49 | 8:30.00 | 114574 | 152823
7 | 33:57.49 | 5:19.21 | 152824 | 176769
8 | 39:16.70 | 9:43.00 | 176770 | 220494
9 | 48:59.70 | 8:51.00 | 220495 | 260319
10 | 57:50.70 | 6:59.01 | 260320 | 291745


Track 1

Filename E:\WHAT.CD\000TEMP\Invisible - Porpora, Monn, Haydn Cello Concertos (2017) [FLAC]\01 - Concerto für Violoncello in G - 1. Adagio.wav

Pre-gap length 0:00:02.00

Peak level 68.9 %
Extraction speed 4.2 X
Track quality 100.0 %
Test CRC 011382A4
Copy CRC 011382A4
Accurately ripped (confidence 1) [3378A078] (AR v2)
Copy OK

Track 2

Filename E:\WHAT.CD\000TEMP\Invisible - Porpora, Monn, Haydn Cello Concertos (2017) [FLAC]\02 - Concerto für Violoncello in G - 2. Allegro.wav

Pre-gap length 0:00:01.98

Peak level 100.0 %
Extraction speed 4.9 X
Track quality 100.0 %
Test CRC 0C5DE09D
Copy CRC 0C5DE09D
Accurately ripped (confidence 1) [230300A5] (AR v2)
Copy OK

Track 3

Filename E:\WHAT.CD\000TEMP\Invisible - Porpora, Monn, Haydn Cello Concertos (2017) [FLAC]\03 - Concerto für Violoncello in G - 3. Adagio.wav

Pre-gap length 0:00:01.98

Peak level 47.5 %
Extraction speed 5.4 X
Track quality 100.0 %
Test CRC 4C8C26FA
Copy CRC 4C8C26FA
Accurately ripped (confidence 1) [FA083544] (AR v2)
Copy OK

Track 4

Filename E:\WHAT.CD\000TEMP\Invisible - Porpora, Monn, Haydn Cello Concertos (2017) [FLAC]\04 - Concerto für Violoncello in G - 4. Allegro.wav

Pre-gap length 0:00:01.98

Peak level 100.0 %
Extraction speed 5.8 X
Track quality 100.0 %
Test CRC 8307B1B3
Copy CRC 8307B1B3
Accurately ripped (confidence 1) [E2B03D2C] (AR v2)
Copy OK

Track 5

Filename E:\WHAT.CD\000TEMP\Invisible - Porpora, Monn, Haydn Cello Concertos (2017) [FLAC]\05 - Concerto für Violoncello in g-moll - 1. Allegro moderato.wav

Pre-gap length 0:00:02.02

Peak level 78.1 %
Extraction speed 6.5 X
Track quality 100.0 %
Test CRC 9B6F0CA4
Copy CRC 9B6F0CA4
Accurately ripped (confidence 1) [430536D4] (AR v2)
Copy OK

Track 6

Filename E:\WHAT.CD\000TEMP\Invisible - Porpora, Monn, Haydn Cello Concertos (2017) [FLAC]\06 - Concerto für Violoncello in g-moll - 2. Adagio.wav

Pre-gap length 0:00:01.98

Peak level 85.6 %
Extraction speed 7.2 X
Track quality 100.0 %
Test CRC 12223351
Copy CRC 12223351
Accurately ripped (confidence 1) [DE2FD6B1] (AR v2)
Copy OK

Track 7

Filename E:\WHAT.CD\000TEMP\Invisible - Porpora, Monn, Haydn Cello Concertos (2017) [FLAC]\07 - Concerto für Violoncello in g-moll - 3. Allegro non tanto.wav

Pre-gap length 0:00:01.98

Peak level 100.0 %
Extraction speed 7.4 X
Track quality 100.0 %
Test CRC 50B47D53
Copy CRC 50B47D53
Accurately ripped (confidence 1) [F3C0B509] (AR v2)
Copy OK

Track 8

Filename E:\WHAT.CD\000TEMP\Invisible - Porpora, Monn, Haydn Cello Concertos (2017) [FLAC]\08 - 'Concerto für Violoncello in C, Hob. VIIb.1 - 1. Moderato.wav

Pre-gap length 0:00:01.98

Peak level 100.0 %
Extraction speed 7.7 X
Track quality 99.9 %
Test CRC 1D83867C
Copy CRC 1D83867C
Accurately ripped (confidence 1) [A1B8009B] (AR v2)
Copy OK

Track 9

Filename E:\WHAT.CD\000TEMP\Invisible - Porpora, Monn, Haydn Cello Concertos (2017) [FLAC]\09 - Concerto für Violoncello in C, Hob. VIIb.1 - 2. Adagio.wav

Pre-gap length 0:00:01.98

Peak level 59.0 %
Extraction speed 8.8 X
Track quality 100.0 %
Test CRC BBF92DBB
Copy CRC BBF92DBB
Accurately ripped (confidence 1) [AFE1640F] (AR v2)
Copy OK

Track 10

Filename E:\WHAT.CD\000TEMP\Invisible - Porpora, Monn, Haydn Cello Concertos (2017) [FLAC]\10 - Concerto für Violoncello in C, Hob. VIIb.1 - 3. Finale. Allegro molto.wav

Pre-gap length 0:00:01.98

Peak level 100.0 %
Extraction speed 9.0 X
Track quality 100.0 %
Test CRC C7E2D545
Copy CRC C7E2D545
Accurately ripped (confidence 1) [37CA7FCF] (AR v2)
Copy OK


All tracks accurately ripped

No errors occurred

End of status report

–– CUETools DB Plugin V2.1.6

[CTDB TOCID: CILEHZ442ggUcvwYg.6HP3tv5RE-] found
Submit result: CILEHZ442ggUcvwYg.6HP3tv5RE- has been confirmed
Track | CTDB Status
1 | (5/5) Accurately ripped
2 | (5/5) Accurately ripped
3 | (5/5) Accurately ripped
4 | (5/5) Accurately ripped
5 | (5/5) Accurately ripped
6 | (5/5) Accurately ripped
7 | (5/5) Accurately ripped
8 | (5/5) Accurately ripped
9 | (5/5) Accurately ripped
10 | (5/5) Accurately ripped


==== Log checksum 15BECA0199413897D99540BBC8F52587E30A4F08A71115348C6CD0D26F439A73 ====

Thanks to the Original ripper !