Subcategories
Tags
Language
Tags

Roadkill Ghost Choir - False Youth Etcetera (2017)

Posted By: delpotro
Roadkill Ghost Choir - False Youth Etcetera (2017)

Roadkill Ghost Choir - False Youth Etcetera (2017)
EAC Rip | FLAC (tracks+log+.cue) | 01:00:29 | 394 Mb
Indie Rock, Folk Rock, Americana | Label: Freakout Records

It's been two years since Roadkill Ghost Choir has taken listeners on a ride. Last trip, brothers Andrew and Zach Shepard packed the car with high aspirations, a top-notch crew of musicians and the profound swelter of the South. With the upcoming arrival of False Youth Etcetera, the brothers have outgrown their roots in a supersonic fashion - exchanging their broken-down vehicles for an electrified magic carpet ride that soars through the night sky. Amidst the surprise success of the band's first record, primary songwriter Andrew was hardened by his experiences on the road, and under pressure to deliver new songs that outshined previous releases. It's no surprise False Youth Etcetera feels like a turn towards the fantastical, an anthemic escape compared to past output. It's immediately felt on the band's first single, "Classics (Die Young)," which bends beautifully and purposefully in the direction of synth-pop, and sets the tone for the entire record.

"Going into [the band's first major release] In Tongues, I was terrified because I had never written under such a time crunch, and I struggled with writer's block," notes Shepard. "For False Youth Etcetera, it ended up being the first time I didn't have a timeline. I was able to navigate what I really wanted to do musically and lyrically. This record is more textural, with more synth and more interesting experimentation within our sound and genre."
Shepard is pointed in the departure from their familiar Americana sound, confirming
"there is no banjo" on False Youth Etcetera. This desire to explore new musical terrain was only bolstered by Shepard's adoration for similar sonic explorations and artists transcending their genre to create a unique sound - rooted in influences such as The War On Drugs, Neu! and Bruce Springsteen. The result is an album that clearly and beautifully delivers the group to a whole new infectious, cosmic terrain.
Tracklist:
1 Vision on Vision / Undo 10:11
2 Classics (Die Young) 4:40
3 Cassette Memory 3:56
4 Dream Shiver 4:26
5 Severed Hand of God 5:20
6 K.L.P. #1 1:30
7 Panik Kit 5:42
8 Sad Magic 3:04
9 Suit Said Sing 4:09
10 Sadness for My Friends 3:09
11 Television Teeth 5:07
12 Out of Existence 9:16

Exact Audio Copy V1.3 from 2. September 2016

EAC extraction logfile from 11. February 2018, 9:21

Roadkill Ghost Choir / False Youth Etcetera

Used drive : hp DVD-RAM SW820 Adapter: 1 ID: 0

Read mode : Secure
Utilize accurate stream : Yes
Defeat audio cache : Yes
Make use of C2 pointers : No

Read offset correction : 6
Overread into Lead-In and Lead-Out : No
Fill up missing offset samples with silence : Yes
Delete leading and trailing silent blocks : No
Null samples used in CRC calculations : Yes
Used interface : Native Win32 interface for Win NT & 2000
Gap handling : Appended to previous track

Used output format : User Defined Encoder
Selected bitrate : 768 kBit/s
Quality : High
Add ID3 tag : No
Command line compressor : C:\Program Files (x86)\Exact Audio Copy\FLAC\FLAC.EXE
Additional command line options : -8 -e -p -V -T "ARTIST=%artist%" -T "TITLE=%title%" -T "ALBUM=%albumtitle%" -T "DATE=%year%" -T "TRACKNUMBER=%tracknr%" -T "GENRE=%genre%" -T "PERFORMER=%albuminterpret%" -T "COMPOSER=%composer%" %haslyrics%–tag-from-file=LYRICS="%lyricsfile%"%haslyrics% -T "ALBUMARTIST=%albumartist%" -T "DISCNUMBER=%cdnumber%" -T "TOTALDISCS=%totalcds%" -T "TOTALTRACKS=%numtracks%" -T "COMMENT=%comment%" %source% -o %dest%


TOC of the extracted CD

Track | Start | Length | Start sector | End sector
––––––––––––––––––––––––––––-
1 | 0:00.00 | 10:11.27 | 0 | 45851
2 | 10:11.27 | 4:40.04 | 45852 | 66855
3 | 14:51.31 | 3:56.67 | 66856 | 84622
4 | 18:48.23 | 4:26.23 | 84623 | 104595
5 | 23:14.46 | 5:20.03 | 104596 | 128598
6 | 28:34.49 | 1:30.66 | 128599 | 135414
7 | 30:05.40 | 5:42.44 | 135415 | 161108
8 | 35:48.09 | 3:04.40 | 161109 | 174948
9 | 38:52.49 | 4:09.60 | 174949 | 193683
10 | 43:02.34 | 3:09.04 | 193684 | 207862
11 | 46:11.38 | 5:07.72 | 207863 | 230959
12 | 51:19.35 | 9:16.48 | 230960 | 272707


Track 1

Filename C:\Rips v3\Roadkill Ghost Choir - False Youth Etcetera {2017} [CD] (FLAC)\01 - Vision on Vision,Undo.wav

Pre-gap length 0:00:02.00

Peak level 100.0 %
Extraction speed 1.4 X
Track quality 100.0 %
Test CRC 7A3F213D
Copy CRC 7A3F213D
Track not present in AccurateRip database
Copy OK

Track 2

Filename C:\Rips v3\Roadkill Ghost Choir - False Youth Etcetera {2017} [CD] (FLAC)\02 - Classics (Die Young).wav

Peak level 100.0 %
Extraction speed 1.5 X
Track quality 100.0 %
Test CRC 2A34B17C
Copy CRC 2A34B17C
Track not present in AccurateRip database
Copy OK

Track 3

Filename C:\Rips v3\Roadkill Ghost Choir - False Youth Etcetera {2017} [CD] (FLAC)\03 - Cassette Memory.wav

Peak level 100.0 %
Extraction speed 1.6 X
Track quality 100.0 %
Test CRC E13151AB
Copy CRC E13151AB
Track not present in AccurateRip database
Copy OK

Track 4

Filename C:\Rips v3\Roadkill Ghost Choir - False Youth Etcetera {2017} [CD] (FLAC)\04 - Dream Shiver.wav

Peak level 100.0 %
Extraction speed 1.7 X
Track quality 100.0 %
Test CRC 601DF9B3
Copy CRC 601DF9B3
Track not present in AccurateRip database
Copy OK

Track 5

Filename C:\Rips v3\Roadkill Ghost Choir - False Youth Etcetera {2017} [CD] (FLAC)\05 - Severed Hand of God.wav

Peak level 100.0 %
Extraction speed 1.7 X
Track quality 99.9 %
Test CRC F9C875D5
Copy CRC F9C875D5
Track not present in AccurateRip database
Copy OK

Track 6

Filename C:\Rips v3\Roadkill Ghost Choir - False Youth Etcetera {2017} [CD] (FLAC)\06 - KLP #1.wav

Peak level 100.0 %
Extraction speed 1.5 X
Track quality 100.0 %
Test CRC 8AA3F523
Copy CRC 8AA3F523
Track not present in AccurateRip database
Copy OK

Track 7

Filename C:\Rips v3\Roadkill Ghost Choir - False Youth Etcetera {2017} [CD] (FLAC)\07 - Panik Kit.wav

Peak level 99.6 %
Extraction speed 1.9 X
Track quality 99.9 %
Test CRC 7FF6EEC2
Copy CRC 7FF6EEC2
Track not present in AccurateRip database
Copy OK

Track 8

Filename C:\Rips v3\Roadkill Ghost Choir - False Youth Etcetera {2017} [CD] (FLAC)\08 - Sad Magic.wav

Peak level 100.0 %
Extraction speed 1.9 X
Track quality 100.0 %
Test CRC 7B437658
Copy CRC 7B437658
Track not present in AccurateRip database
Copy OK

Track 9

Filename C:\Rips v3\Roadkill Ghost Choir - False Youth Etcetera {2017} [CD] (FLAC)\09 - Suit Said Sing.wav

Peak level 100.0 %
Extraction speed 2.1 X
Track quality 100.0 %
Test CRC 52E217A4
Copy CRC 52E217A4
Track not present in AccurateRip database
Copy OK

Track 10

Filename C:\Rips v3\Roadkill Ghost Choir - False Youth Etcetera {2017} [CD] (FLAC)\10 - Sadness for My Friends.wav

Peak level 98.7 %
Extraction speed 2.1 X
Track quality 100.0 %
Test CRC 19F998E1
Copy CRC 19F998E1
Track not present in AccurateRip database
Copy OK

Track 11

Filename C:\Rips v3\Roadkill Ghost Choir - False Youth Etcetera {2017} [CD] (FLAC)\11 - Television Teeth.wav

Peak level 100.0 %
Extraction speed 2.3 X
Track quality 100.0 %
Test CRC 52C2448C
Copy CRC 52C2448C
Track not present in AccurateRip database
Copy OK

Track 12

Filename C:\Rips v3\Roadkill Ghost Choir - False Youth Etcetera {2017} [CD] (FLAC)\12 - Out of Existence.wav

Peak level 100.0 %
Extraction speed 2.6 X
Track quality 100.0 %
Test CRC C5CE5BB0
Copy CRC C5CE5BB0
Track not present in AccurateRip database
Copy OK


None of the tracks are present in the AccurateRip database

No errors occurred

End of status report

–– CUETools DB Plugin V2.1.6

[CTDB TOCID: 8WNHt2oeP9XdZlfNNG6syXd3j3E-] disk not present in database
Submit result: 8WNHt2oeP9XdZlfNNG6syXd3j3E- has been uploaded


==== Log checksum 5DCB77C54CDA255320E08CD9F4466CF1121C3F543B0EE585EB080EA8F2BDC17A ====

Thanks to the Original ripper sharky77 !