Subcategories

Pharoah Sanders - Moon Child (1989) {2015 Japan Timeless Jazz Master Collection Complete Series CDSOL-6337}

Posted By: ruskaval
Pharoah Sanders - Moon Child (1989) {2015 Japan Timeless Jazz Master Collection Complete Series CDSOL-6337}

Pharoah Sanders - Moon Child (1989) {2015 Japan Timeless Jazz Master Collection Complete Series CDSOL-6337}
EAC rip (secure mode) | FLAC (tracks)+CUE+LOG -> 334 Mb | MP3 @320 -> 123 Mb
Full Artwork @ 600 dpi (png) -> 167 Mb | 5% repair rar
© 1989, 2015 Timeless Records / Solid Records Japan / Ultra-Vibe | CDSOL-6337
Jazz / Contemporary Jazz / Post Bop / Saxophone

Reissue with the latest remastering. Features original cover artwork. Comes with a descripton in Japanese. By this point in his career, Sanders had largely withdrawn from the kind of screeching avant-gardism on which he at first staked his reputation. The opening "Moon Child," with its attractively spacy vocals, is reminiscent of the days of "The Creator Has a Master Plan," but this version sounds too contrived to rival the classic earlier recording. The mood is subdued throughout and the choice of tunes definitely on the conservative side ("All or Nothing at All" and "The Night Has a Thousand Eyes," among the six tracks).

William Henderson is lovely on piano, while the drummer (Eddie Moore) and percussionist (Cheikh Tidiane Fale) keep to the quiet side. The results may have originally disappointed some of Sanders' fans, but with time the saxophonist clearly reinvented himself as a more traditional improviser capable of thoughtful and pensive deliberations.
Pharoah Sanders - Moon Child (1989) {2015 Japan Timeless Jazz Master Collection Complete Series CDSOL-6337}


Ultra-Vibe INFO

Personnel:
Pharoah Sanders - tenor saxophone, soprano saxophone
William Henderson - piano
Stafford James - bass
Eddie Moore - drums
Cheikh Tidiane Fall - percussion

tracklist:
01 - Moon Child
02 - Moon Rays
03 - The Night Has A Thousand Eyes
04 - All Or Nothing At All
05 - Soon
06 - Moniebah

Exact Audio Copy V1.3 from 2. September 2016

EAC extraction logfile from 2. October 2017, 21:15

Pharoah Sanders / Moon Child

Used drive : TSSTcorpCDDVDW SE-208DB Adapter: 1 ID: 1

Read mode : Secure
Utilize accurate stream : Yes
Defeat audio cache : Yes
Make use of C2 pointers : No

Read offset correction : 6
Overread into Lead-In and Lead-Out : No
Fill up missing offset samples with silence : Yes
Delete leading and trailing silent blocks : No
Null samples used in CRC calculations : Yes
Used interface : Native Win32 interface for Win NT & 2000
Gap handling : Appended to previous track

Used output format : User Defined Encoder
Selected bitrate : 1024 kBit/s
Quality : High
Add ID3 tag : No
Command line compressor : C:\Program Files (x86)\FLAC Frontend\tools\flac.exe
Additional command line options : -8 -V -T "ARTIST=%artist%" -T "TITLE=%title%" -T "ALBUM=%albumtitle%" -T "DATE=%year%" -T "TRACKNUMBER=%tracknr%" -T "TOTALTRACKS=%numtracks%" -T "GENRE=%genre%" -T "ALBUMARTIST=%albumartist%" -T "ALBUM ARTIST=%albumartist%" -T "COMMENT=EAC Secure Mode, Test & Copy, AccurateRip, FLAC -8" %source%


TOC of the extracted CD

Track | Start | Length | Start sector | End sector
––––––––––––––––––––––––––––-
1 | 0:00.00 | 8:10.53 | 0 | 36802
2 | 8:10.53 | 6:15.23 | 36803 | 64950
3 | 14:26.01 | 12:19.08 | 64951 | 120383
4 | 26:45.09 | 9:25.06 | 120384 | 162764
5 | 36:10.15 | 5:31.50 | 162765 | 187639
6 | 41:41.65 | 10:44.21 | 187640 | 235960


Track 1

Filename E:\EAC_RIP\Pharoah Sanders - Moon Child (1989) [FLAC] {Timeless Japan CDSOL-6337}\01 - Moon Child.wav

Pre-gap length 0:00:02.00

Peak level 97.3 %
Extraction speed 2.6 X
Track quality 99.9 %
Test CRC EE867DAE
Copy CRC EE867DAE
Accurately ripped (confidence 2) [90DB016A] (AR v2)
Copy OK

Track 2

Filename E:\EAC_RIP\Pharoah Sanders - Moon Child (1989) [FLAC] {Timeless Japan CDSOL-6337}\02 - Moon Rays.wav

Peak level 97.3 %
Extraction speed 2.6 X
Track quality 99.9 %
Test CRC 16AF569E
Copy CRC 16AF569E
Accurately ripped (confidence 2) [0F1B456A] (AR v2)
Copy OK

Track 3

Filename E:\EAC_RIP\Pharoah Sanders - Moon Child (1989) [FLAC] {Timeless Japan CDSOL-6337}\03 - The Night Has A Thousand Eyes.wav

Peak level 97.3 %
Extraction speed 4.0 X
Track quality 100.0 %
Test CRC AF485BC6
Copy CRC AF485BC6
Accurately ripped (confidence 2) [D0B6C251] (AR v2)
Copy OK

Track 4

Filename E:\EAC_RIP\Pharoah Sanders - Moon Child (1989) [FLAC] {Timeless Japan CDSOL-6337}\04 - All Or Nothing At All.wav

Peak level 97.3 %
Extraction speed 4.5 X
Track quality 100.0 %
Test CRC 0D068FF5
Copy CRC 0D068FF5
Accurately ripped (confidence 2) [42F34E86] (AR v2)
Copy OK

Track 5

Filename E:\EAC_RIP\Pharoah Sanders - Moon Child (1989) [FLAC] {Timeless Japan CDSOL-6337}\05 - Soon.wav

Peak level 89.7 %
Extraction speed 4.0 X
Track quality 99.9 %
Test CRC 11C6AD82
Copy CRC 11C6AD82
Accurately ripped (confidence 2) [59BB9C19] (AR v2)
Copy OK

Track 6

Filename E:\EAC_RIP\Pharoah Sanders - Moon Child (1989) [FLAC] {Timeless Japan CDSOL-6337}\06 - Moniebah.wav

Peak level 97.3 %
Extraction speed 5.2 X
Track quality 100.0 %
Test CRC 071114D0
Copy CRC 071114D0
Accurately ripped (confidence 2) [20558F51] (AR v2)
Copy OK


All tracks accurately ripped

No errors occurred

End of status report

–– CUETools DB Plugin V2.1.6

[CTDB TOCID: 3U5tSS2P_44dpBjv_9vEivYpz3M-] found
Submit result: 3U5tSS2P_44dpBjv_9vEivYpz3M- has been confirmed
Track | CTDB Status
1 | (5/5) Accurately ripped
2 | (5/5) Accurately ripped
3 | (5/5) Accurately ripped
4 | (5/5) Accurately ripped
5 | (5/5) Accurately ripped
6 | (4/5) Accurately ripped, or (1/5) differs in 1 samples @10:44:09


==== Log checksum 58130F14753B6B2716355D54F156D98D0A24E4237EC7B05AC231924C4ADCFD21 ====


Pharoah Sanders - Moon Child (1989) {2015 Japan Timeless Jazz Master Collection Complete Series CDSOL-6337}

Pharoah Sanders - Moon Child (1989) {2015 Japan Timeless Jazz Master Collection Complete Series CDSOL-6337}


see more Japan Timeless Jazz Master Collection…


===