Subcategories
Tags
Language
Tags

Paul Desmond - The Complete 1975 Toronto Recordings (7CD) (2020)

Posted By: Domestos
Paul Desmond - The Complete 1975 Toronto Recordings (7CD) (2020)

Paul Desmond - The Complete 1975 Toronto Recordings (7CD) (2020)
XLD Rip | FLAC (tracks+.cue, log) ~ 3,04 Gb | 08:13:52 | Covers
Cool | Country: USA | Label: Mosaic Records - MD7-269

Paul Desmond was an artist who stood alone on the alto saxophone. His tone was light, but full. His improvisations were complex but always lyrical and direct. If Johnny Hodges was the seducer on alto, Desmond was the cool intellect always willing to engage all of your senses.

From 1950 to 1967, he was the famous alter ego to Dave Brubeck's equally challenging but always robust piano inventions. The unprecedented success of the Brubeck quartet with 17 years of constant club dates, concerts and sound checks, accompanied by a succession of airports, cab rides, hotels and food-on-the run took its toll on the members of the group.

Desmond's only professional activities outside the Brubeck orbit were several recorded encounters with Gerry Mulligan and the recording quartet that he led from 1959 to 1965 with guitarist Jim Hall and drummer Connie Kay on a succession of albums for Warner Bros. and RCA Victor. When the Brubeck quartet disbanded in 1967, Desmond began a phase of semi-retirement. He recorded a number of commercially-oriented albums for A & M and CTI, produced by Creed Taylor, between 1968 and '74. The last album in this run was the aptly-named "Pure Desmond" with a quartet that included Canadian guitarist Ed Bickert, who was recommended to Paul by Jim Hall.

Desmond was accepting few live gigs during this period beyond reunion tours with Brubeck. He didn't need the money and he was physically spent. But an offer to play the Bourbon Street Jazz Club with Bickert in March 1975 proved irresistible. Bassist Don Thompson and drummer Jerry Fuller completed the band. Desmond connected with this rhythm section immediately and a strong musical bond developed on the bandstand that yanked Desmond out of his doldrums.

He later wrote of "the giddy euphoria of playing a club again after years of concerts." Of the inspirational sidemen on the date, he said, "Jerry [Fuller] is a charter member of a unique and endangered species - a drummer who is happiest while devoting his sensitive and intelligent playing to whatever is happening at the moment…Don [Thompson] is of course, a walking miracle…he writes charts like an angel…he plays the right changes…his solos are dependably unbelievable. Ed Bickert is unique. Chords, for instance…when I work with Ed, I find myself turning around several times a night to count the strings on his guitar."

Thankfully, Don Thompson had the presence of mind to start recording the band at the club on his quarter-track tape recorder. Desmond was energized and the quartet became a strong unit with its own personality in no time at all. A week in March and two weeks in October yielded enough exceptional music that producer John Snyder compiled a stunning double album for A & M Horizon entitled "The Paul Desmond Quartet Live." Another LP on Artist House followed with more material issued on a Telarc CD in 1992.

These recordings are an embarrassment of riches. With a rhythm section that suited his every need, a renewed Paul Desmond delivered some of the best performances of his career. The repertoire consisted of standards, Brazilian songs, jazz classics and originals that the alto saxophonist loved to play throughout his career, challenging himself to breathe new life into material in his comfort zone.

Speaking of comfort zone, Desmond has recorded without a chordal instrument only three times in his career - on his 1953 Fantasy session with Don Elliott and on two collaborations with Gerry Mulligan in 1957 and 1962. On the last two nights of the Toronto sessions, Ed Bickert was called away due to the death of his father. Valve trombonist Rob McConnell was brought in to complete the quartet. The results of those nights are heard here on the fourth disc of the set. They are a revelation with Desmond playing more independently and taking chances that he might not have with chordal accompaniment.

More albums were planned, but they never saw the light of day. Now Mosaic has gathered all of the material approved by Desmond and the group (three hours of released material and five hours of unreleased material) into a 7-CD boxed set of The Complete Paul Desmond Toronto Sessions. Don Thompson has returned to his original analog tapes and mixed them anew for maximum fidelity.



CD1 {01:09:13}
01. Too Marvelous for Words (8:03)
02. Line for Lyons (9:05)
03. Emily (9:38)
04. It Could Happen to You (7:42)
05. Just Squeeze Me (9:06)
06. I Wish I Knew (8:23)
07. I Should Care (8:41)
08. Audrey (8:35)

CD2 {01:13:16}
01. Just Squeeze Me (8:43)
02. Meditation (10:55)
03. Tangerine (9:42)
04. Darn That Dream (12:13)
05. Nuages (10:36)
06. Like Someone in Love (9:50)
07. Things Ain't What They Used to Be (11:17)

CD3 {01:05:10}
01. Line for Lyons (7:39)
02. Wendy (11:17)
03. Too Marvelous for Words (6:52)
04. When Sunny Gets Blue (11:47)
05. Audrey (9:39)
06. Darn That Dream (10:56)
07. Take Five (7:00)

CD4 {01:10:24}
01. Tangerine (7:46)
02. Wave (12:47)
03. It Could Happen to You (9:47)
04. Emily (8:53)
05. Line for Lyons (8:22)
06. When Sunny Gets Blue (12:41)
07. Things Ain't What They Used to Be (10:08)

CD5 {01:04:30}
01. I've Got You Under My Skin (10:45)
02. Just Squeeze Me (9:53)
03. All the Things You Are (9:07)
04. Autumn Leaves (8:52)
05. Wave (10:25)
06. Nuages (9:06)
07. East of the Sun (6:22)

CD6 {01:17:53}
01. Let's Get Away from It All (11:54)
02. Line for Lyons (12:21)
03. Just Squeeze Me (11:19)
04. My Funny Valentine (8:34)
05. Mean to Me (12:18)
06. Wendy (11:50)
07. Things Ain't What They Used to Be (9:37)

CD7 {01:13:26}
01. Wendy (7:34)
02. Wave (11:39)
03. Things Ain't What They Used to Be (9:09)
04. Nancy (9:51)
05. Manha de Carnaval (9:39)
06. Here's That Rainy Day (7:26)
07. My Funny Valentine (10:45)
08. Take Five (7:23)

Alto Saxophone – Paul Desmond
Bass – Don Thompson (2)
Drums – Jerry Fuller (2)
Engineer [Remixed By] – Chad Irschich* (tracks: 1-1 to 6-7), Gary Gray
Executive-Producer – John Snyder
Guitar – Ed Bickert (tracks: 1-1 to 5-7, 7-1 to 7-8)
Liner Notes – Doug Ramsey
Producer [Produced For Release] – Michael Cuscuna
Producer [Produced For Release], Mastered By – Chad Irschich*
Producer [Produced For Release], Recorded By, Producer [Original Sessions] – Don Thompson (2)
Valve Trombone – Rob McConnell (tracks: 6-1 to 6-7)

Paul Desmond - The Complete 1975 Toronto Recordings (7CD) (2020)

X Lossless Decoder version 20191004 (152.0)

XLD extraction logfile from 2020-12-29 21:27:19 -0600

Paul Desmond / The Complete 1975 Toronto Recordings Disc1

Used drive : HL-DT-ST BD-RE WH16NS40 (revision 1.04)
Media type : Pressed CD

Ripper mode : XLD Secure Ripper
Disable audio cache : OK for the drive with a cache less than 1375KiB
Make use of C2 pointers : NO
Read offset correction : 6
Max retry count : 100
Gap status : Analyzed, Appended (except HTOA)

TOC of the extracted CD
Track | Start | Length | Start sector | End sector
––––––––––––––––––––––––––––-
1 | 00:00:00 | 08:02:40 | 0 | 36189
2 | 08:02:40 | 09:04:43 | 36190 | 77032
3 | 17:07:08 | 09:37:40 | 77033 | 120347
4 | 26:44:48 | 07:42:00 | 120348 | 154997
5 | 34:26:48 | 09:05:46 | 154998 | 195918
6 | 43:32:19 | 08:23:17 | 195919 | 233660
7 | 51:55:36 | 08:41:04 | 233661 | 272739
8 | 60:36:40 | 08:35:02 | 272740 | 311366

AccurateRip Summary (DiscID: 00156590-008ebfda-68103708)
Track 01 : OK (v2, confidence 11/11)
Track 02 : OK (v2, confidence 11/11)
Track 03 : OK (v2, confidence 11/11)
Track 04 : OK (v2, confidence 11/11)
Track 05 : OK (v2, confidence 11/11)
Track 06 : OK (v2, confidence 11/11)
Track 07 : OK (v2, confidence 11/11)
Track 08 : OK (v2, confidence 11/11)
->All tracks accurately ripped.

All Tracks
Album gain : -4.02 dB
Peak : 0.898865
Statistics
Read error : 0
Jitter error (maybe fixed) : 0
Retry sector count : 0
Damaged sector count : 0

Track 01
Filename : /Volumes/Music/01 Too Marvelous For Words.flac
Pre-gap length : 00:02:00

Track gain : -4.79 dB
Peak : 0.867462
CRC32 hash (test run) : 48C2C854
CRC32 hash : 48C2C854
CRC32 hash (skip zero) : E843285F
AccurateRip v1 signature : A0128DA0
AccurateRip v2 signature : 6A91D4C0
->Accurately ripped (v2, confidence 11/11)
Statistics
Read error : 0
Jitter error (maybe fixed) : 0
Retry sector count : 0
Damaged sector count : 0

Track 02
Filename : /Volumes/Music/02 Line For Lyons.flac

Track gain : -4.53 dB
Peak : 0.863525
CRC32 hash (test run) : 77955BEB
CRC32 hash : 77955BEB
CRC32 hash (skip zero) : 884AF0F2
AccurateRip v1 signature : 2C3E9AE2
AccurateRip v2 signature : 18AF23D9
->Accurately ripped (v2, confidence 11/11)
Statistics
Read error : 0
Jitter error (maybe fixed) : 0
Retry sector count : 0
Damaged sector count : 0

Track 03
Filename : /Volumes/Music/03 Emily.flac

Track gain : -3.43 dB
Peak : 0.854797
CRC32 hash (test run) : 4C72BD77
CRC32 hash : 4C72BD77
CRC32 hash (skip zero) : CD5CC7D9
AccurateRip v1 signature : D35D1510
AccurateRip v2 signature : 804A449D
->Accurately ripped (v2, confidence 11/11)
Statistics
Read error : 0
Jitter error (maybe fixed) : 0
Retry sector count : 0
Damaged sector count : 0

Track 04
Filename : /Volumes/Music/04 It Could Happen To You.flac

Track gain : -3.64 dB
Peak : 0.858429
CRC32 hash (test run) : 65634535
CRC32 hash : 65634535
CRC32 hash (skip zero) : 8B824292
AccurateRip v1 signature : F1D7CB93
AccurateRip v2 signature : CC3621BF
->Accurately ripped (v2, confidence 11/11)
Statistics
Read error : 0
Jitter error (maybe fixed) : 0
Retry sector count : 0
Damaged sector count : 0

Track 05
Filename : /Volumes/Music/05 Just Squeeze Me.flac

Track gain : -3.81 dB
Peak : 0.859680
CRC32 hash (test run) : C4BB773F
CRC32 hash : C4BB773F
CRC32 hash (skip zero) : 10D1BB40
AccurateRip v1 signature : EBB369B5
AccurateRip v2 signature : 6BEA92FF
->Accurately ripped (v2, confidence 11/11)
Statistics
Read error : 0
Jitter error (maybe fixed) : 0
Retry sector count : 0
Damaged sector count : 0

Track 06
Filename : /Volumes/Music/06 I Wish I Knew.flac

Track gain : -4.59 dB
Peak : 0.898865
CRC32 hash (test run) : 1E775E88
CRC32 hash : 1E775E88
CRC32 hash (skip zero) : A47FB3D6
AccurateRip v1 signature : C54F49B5
AccurateRip v2 signature : CA415F97
->Accurately ripped (v2, confidence 11/11)
Statistics
Read error : 0
Jitter error (maybe fixed) : 0
Retry sector count : 0
Damaged sector count : 0

Track 07
Filename : /Volumes/Music/07 I Should Care.flac

Track gain : -3.75 dB
Peak : 0.860474
CRC32 hash (test run) : 96255D6F
CRC32 hash : 96255D6F
CRC32 hash (skip zero) : 39602E2F
AccurateRip v1 signature : 4D612B07
AccurateRip v2 signature : 22EBB0A3
->Accurately ripped (v2, confidence 11/11)
Statistics
Read error : 0
Jitter error (maybe fixed) : 0
Retry sector count : 0
Damaged sector count : 0

Track 08
Filename : /Volumes/Music/08 Audrey.flac

Track gain : -3.38 dB
Peak : 0.856842
CRC32 hash (test run) : 3D9FD11B
CRC32 hash : 3D9FD11B
CRC32 hash (skip zero) : BCD0D987
AccurateRip v1 signature : 9E291418
AccurateRip v2 signature : 141789A4
->Accurately ripped (v2, confidence 11/11)
Statistics
Read error : 0
Jitter error (maybe fixed) : 0
Retry sector count : 0
Damaged sector count : 0

No errors occurred

End of status report

––-BEGIN XLD SIGNATURE––-
NJgqGmBS3V0ULfmkF9ithazSAYCGqF2yAvZj_W1m6MbF67AhLQV7RZmXC5Ml3ss46t79VNn9zcidRRQuVual5OXdIFbi1upxADNfz1y
––-END XLD SIGNATURE––-

X Lossless Decoder version 20191004 (152.0)

XLD extraction logfile from 2020-12-29 22:27:41 -0600

Paul Desmond / The Complete 1975 Toronto Recordings Disc2

Used drive : HL-DT-ST BD-RE WH16NS40 (revision 1.04)
Media type : Pressed CD

Ripper mode : XLD Secure Ripper
Disable audio cache : OK for the drive with a cache less than 1375KiB
Make use of C2 pointers : NO
Read offset correction : 6
Max retry count : 100
Gap status : Analyzed, Appended (except HTOA)

TOC of the extracted CD
Track | Start | Length | Start sector | End sector
––––––––––––––––––––––––––––-
1 | 00:00:00 | 08:42:50 | 0 | 39199
2 | 08:42:50 | 10:54:74 | 39200 | 88323
3 | 19:37:49 | 09:42:05 | 88324 | 131978
4 | 29:19:54 | 12:12:38 | 131979 | 186916
5 | 41:32:17 | 10:35:51 | 186917 | 234592
6 | 52:07:68 | 09:49:65 | 234593 | 278832
7 | 61:57:58 | 11:17:07 | 278833 | 329614

AccurateRip Summary (DiscID: 0013acf5-00770d47-64112a07)
Track 01 : OK (v2, confidence 10/10)
Track 02 : OK (v2, confidence 10/10)
Track 03 : OK (v2, confidence 10/10)
Track 04 : OK (v2, confidence 10/10)
Track 05 : OK (v2, confidence 10/10)
Track 06 : OK (v2, confidence 10/10)
Track 07 : OK (v2, confidence 10/10)
->All tracks accurately ripped.

All Tracks
Album gain : -5.14 dB
Peak : 0.960632
Statistics
Read error : 0
Jitter error (maybe fixed) : 0
Retry sector count : 0
Damaged sector count : 0

Track 01
Filename : /Volumes/Music/01 Just Squeeze Me.flac
Pre-gap length : 00:02:00

Track gain : -5.34 dB
Peak : 0.960632
CRC32 hash (test run) : 12E44A8E
CRC32 hash : 12E44A8E
CRC32 hash (skip zero) : AF6D1400
AccurateRip v1 signature : 8566653D
AccurateRip v2 signature : 93F3B74C
->Accurately ripped (v2, confidence 10/10)
Statistics
Read error : 0
Jitter error (maybe fixed) : 0
Retry sector count : 0
Damaged sector count : 0

Track 02
Filename : /Volumes/Music/02 Meditation.flac

Track gain : -5.66 dB
Peak : 0.922699
CRC32 hash (test run) : 47D01B25
CRC32 hash : 47D01B25
CRC32 hash (skip zero) : 32712431
AccurateRip v1 signature : 909BE0E5
AccurateRip v2 signature : 2CBBB929
->Accurately ripped (v2, confidence 10/10)
Statistics
Read error : 0
Jitter error (maybe fixed) : 0
Retry sector count : 0
Damaged sector count : 0

Track 03
Filename : /Volumes/Music/03 Tangerine.flac

Track gain : -5.65 dB
Peak : 0.924164
CRC32 hash (test run) : 80DADE3D
CRC32 hash : 80DADE3D
CRC32 hash (skip zero) : C995F257
AccurateRip v1 signature : 4EB60134
AccurateRip v2 signature : E805584B
->Accurately ripped (v2, confidence 10/10)
Statistics
Read error : 0
Jitter error (maybe fixed) : 0
Retry sector count : 0
Damaged sector count : 0

Track 04
Filename : /Volumes/Music/04 Darn That Dream.flac

Track gain : -4.34 dB
Peak : 0.907562
CRC32 hash (test run) : AB772A7F
CRC32 hash : AB772A7F
CRC32 hash (skip zero) : DC33E00F
AccurateRip v1 signature : 29E6CD40
AccurateRip v2 signature : 2BF8A2F5
->Accurately ripped (v2, confidence 10/10)
Statistics
Read error : 0
Jitter error (maybe fixed) : 0
Retry sector count : 0
Damaged sector count : 0

Track 05
Filename : /Volumes/Music/05 Nuages.flac

Track gain : -4.93 dB
Peak : 0.922424
CRC32 hash (test run) : 22B7DD85
CRC32 hash : 22B7DD85
CRC32 hash (skip zero) : 30C02188
AccurateRip v1 signature : 1C821B4E
AccurateRip v2 signature : 831D35DF
->Accurately ripped (v2, confidence 10/10)
Statistics
Read error : 0
Jitter error (maybe fixed) : 0
Retry sector count : 0
Damaged sector count : 0

Track 06
Filename : /Volumes/Music/06 Like Someone In Love.flac

Track gain : -5.05 dB
Peak : 0.923859
CRC32 hash (test run) : CF05EB01
CRC32 hash : CF05EB01
CRC32 hash (skip zero) : 350538C0
AccurateRip v1 signature : EE05BE77
AccurateRip v2 signature : 6E965A8F
->Accurately ripped (v2, confidence 10/10)
Statistics
Read error : 0
Jitter error (maybe fixed) : 0
Retry sector count : 0
Damaged sector count : 0

Track 07
Filename : /Volumes/Music/07 Things Ain't What They Used To Be.flac

Track gain : -4.83 dB
Peak : 0.931915
CRC32 hash (test run) : 63CE81B5
CRC32 hash : 63CE81B5
CRC32 hash (skip zero) : BF397CD3
AccurateRip v1 signature : 166C87DF
AccurateRip v2 signature : 2FD9F46E
->Accurately ripped (v2, confidence 10/10)
Statistics
Read error : 0
Jitter error (maybe fixed) : 0
Retry sector count : 0
Damaged sector count : 0

No errors occurred

End of status report

––-BEGIN XLD SIGNATURE––-
A2.0yCJL1p5mfwsiYd.ET3tR_OmBYY6RI8lnmTpdZ4BoDdAvqr9nak6ut1oeMVGjKyz2a9VQY7Lgp.Z3bgE0IfR79Nr9veuFH9Zcvji
––-END XLD SIGNATURE––-

X Lossless Decoder version 20191004 (152.0)

XLD extraction logfile from 2020-12-29 20:43:37 -0600

Paul Desmond / The Complete 1975 Toronto Recordings Disc3

Used drive : HL-DT-ST BD-RE WH16NS40 (revision 1.04)
Media type : Pressed CD

Ripper mode : XLD Secure Ripper
Disable audio cache : OK for the drive with a cache less than 1375KiB
Make use of C2 pointers : NO
Read offset correction : 6
Max retry count : 100
Gap status : Analyzed, Appended (except HTOA)

TOC of the extracted CD
Track | Start | Length | Start sector | End sector
––––––––––––––––––––––––––––-
1 | 00:00:00 | 07:39:14 | 0 | 34438
2 | 07:39:14 | 11:17:03 | 34439 | 85216
3 | 18:56:17 | 06:51:73 | 85217 | 116114
4 | 25:48:15 | 11:47:35 | 116115 | 169174
5 | 37:35:50 | 09:39:26 | 169175 | 212625
6 | 47:15:01 | 10:56:27 | 212626 | 261852
7 | 58:11:28 | 07:00:26 | 261853 | 293378

AccurateRip Summary (DiscID: 0011e544-006c31c0-5c0f4707)
Track 01 : OK (v2, confidence 10/10)
Track 02 : OK (v2, confidence 10/10)
Track 03 : OK (v2, confidence 10/10)
Track 04 : OK (v2, confidence 10/10)
Track 05 : OK (v2, confidence 10/10)
Track 06 : OK (v2, confidence 10/10)
Track 07 : OK (v2, confidence 10/10)
->All tracks accurately ripped.

All Tracks
Album gain : -4.45 dB
Peak : 0.920654
Statistics
Read error : 0
Jitter error (maybe fixed) : 0
Retry sector count : 0
Damaged sector count : 0

Track 01
Filename : /Volumes/Music/01 Line For Lyons.flac
Pre-gap length : 00:02:00

Track gain : -4.82 dB
Peak : 0.907410
CRC32 hash (test run) : E5D7A5F5
CRC32 hash : E5D7A5F5
CRC32 hash (skip zero) : 174DC328
AccurateRip v1 signature : B2B8D0EF
AccurateRip v2 signature : FFDB754A
->Accurately ripped (v2, confidence 10/10)
Statistics
Read error : 0
Jitter error (maybe fixed) : 0
Retry sector count : 0
Damaged sector count : 0

Track 02
Filename : /Volumes/Music/02 Wendy.flac

Track gain : -4.66 dB
Peak : 0.899567
CRC32 hash (test run) : BC6AFB8D
CRC32 hash : BC6AFB8D
CRC32 hash (skip zero) : 7056868D
AccurateRip v1 signature : DE0101D7
AccurateRip v2 signature : 2B9AE464
->Accurately ripped (v2, confidence 10/10)
Statistics
Read error : 0
Jitter error (maybe fixed) : 0
Retry sector count : 0
Damaged sector count : 0

Track 03
Filename : /Volumes/Music/03 Too Marvelous For Words.flac

Track gain : -5.31 dB
Peak : 0.905975
CRC32 hash (test run) : 25714D24
CRC32 hash : 25714D24
CRC32 hash (skip zero) : 65F0AFBF
AccurateRip v1 signature : B192A5AE
AccurateRip v2 signature : 108C39B5
->Accurately ripped (v2, confidence 10/10)
Statistics
Read error : 0
Jitter error (maybe fixed) : 0
Retry sector count : 0
Damaged sector count : 0

Track 04
Filename : /Volumes/Music/04 When Sunny Gets Blue.flac

Track gain : -3.96 dB
Peak : 0.920654
CRC32 hash (test run) : 50938EE6
CRC32 hash : 50938EE6
CRC32 hash (skip zero) : 83791319
AccurateRip v1 signature : B1DD560B
AccurateRip v2 signature : 12FE4733
->Accurately ripped (v2, confidence 10/10)
Statistics
Read error : 0
Jitter error (maybe fixed) : 0
Retry sector count : 0
Damaged sector count : 0

Track 05
Filename : /Volumes/Music/05 Audrey.flac

Track gain : -4.11 dB
Peak : 0.911652
CRC32 hash (test run) : 30F3A2CD
CRC32 hash : 30F3A2CD
CRC32 hash (skip zero) : F3DACD6F
AccurateRip v1 signature : 94D87954
AccurateRip v2 signature : 324B5ED1
->Accurately ripped (v2, confidence 10/10)
Statistics
Read error : 0
Jitter error (maybe fixed) : 0
Retry sector count : 0
Damaged sector count : 0

Track 06
Filename : /Volumes/Music/06 Darn That Dream.flac

Track gain : -4.00 dB
Peak : 0.897461
CRC32 hash (test run) : 1145E3E4
CRC32 hash : 1145E3E4
CRC32 hash (skip zero) : 091E87D5
AccurateRip v1 signature : 72313ACB
AccurateRip v2 signature : 17CA4230
->Accurately ripped (v2, confidence 10/10)
Statistics
Read error : 0
Jitter error (maybe fixed) : 0
Retry sector count : 0
Damaged sector count : 0

Track 07
Filename : /Volumes/Music/07 Take Five.flac

Track gain : -4.46 dB
Peak : 0.898193
CRC32 hash (test run) : 8B13BBCF
CRC32 hash : 8B13BBCF
CRC32 hash (skip zero) : 89E1A33B
AccurateRip v1 signature : 49BF2EF2
AccurateRip v2 signature : EA56E8BD
->Accurately ripped (v2, confidence 10/10)
Statistics
Read error : 0
Jitter error (maybe fixed) : 0
Retry sector count : 0
Damaged sector count : 0

No errors occurred

End of status report

––-BEGIN XLD SIGNATURE––-
iK667W4AXMx70aEA7RPuamN2U7yL6NgPDLJ6mRNUKm9aykj1Y5uNLf_rGPYAgvrTGKvFalWdinbPqwixkJGWHjHDnpvc3L1_MUNVPwy
––-END XLD SIGNATURE––-

X Lossless Decoder version 20191004 (152.0)

XLD extraction logfile from 2020-12-29 21:04:14 -0600

Paul Desmond / The Complete 1975 Toronto Recordings Disc4

Used drive : HL-DT-ST BD-RE WH16NS40 (revision 1.04)
Media type : Pressed CD

Ripper mode : XLD Secure Ripper
Disable audio cache : OK for the drive with a cache less than 1375KiB
Make use of C2 pointers : NO
Read offset correction : 6
Max retry count : 100
Gap status : Analyzed, Appended (except HTOA)

TOC of the extracted CD
Track | Start | Length | Start sector | End sector
––––––––––––––––––––––––––––-
1 | 00:00:00 | 07:46:06 | 0 | 34955
2 | 07:46:06 | 12:46:49 | 34956 | 92454
3 | 20:32:55 | 09:47:04 | 92455 | 136483
4 | 30:19:59 | 08:53:18 | 136484 | 176476
5 | 39:13:02 | 08:21:43 | 176477 | 214094
6 | 47:34:45 | 12:41:31 | 214095 | 271200
7 | 60:16:01 | 10:07:69 | 271201 | 316794

AccurateRip Summary (DiscID: 0012f55f-00725548-60107f07)
Track 01 : OK (v2, confidence 10/10)
Track 02 : OK (v2, confidence 10/10)
Track 03 : OK (v2, confidence 10/10)
Track 04 : OK (v2, confidence 10/10)
Track 05 : OK (v2, confidence 10/10)
Track 06 : OK (v2, confidence 10/10)
Track 07 : OK (v2, confidence 10/10)
->All tracks accurately ripped.

All Tracks
Album gain : -4.89 dB
Peak : 0.942993
Statistics
Read error : 0
Jitter error (maybe fixed) : 0
Retry sector count : 0
Damaged sector count : 0

Track 01
Filename : /Volumes/Music/01 Tangerine.flac
Pre-gap length : 00:02:00

Track gain : -4.95 dB
Peak : 0.904724
CRC32 hash (test run) : DC8347B3
CRC32 hash : DC8347B3
CRC32 hash (skip zero) : F8AF3935
AccurateRip v1 signature : D0CF698F
AccurateRip v2 signature : DA1C4390
->Accurately ripped (v2, confidence 10/10)
Statistics
Read error : 0
Jitter error (maybe fixed) : 0
Retry sector count : 0
Damaged sector count : 0

Track 02
Filename : /Volumes/Music/02 Wave.flac

Track gain : -4.43 dB
Peak : 0.914581
CRC32 hash (test run) : 4B5B6A19
CRC32 hash : 4B5B6A19
CRC32 hash (skip zero) : EB59B982
AccurateRip v1 signature : 69353B13
AccurateRip v2 signature : CD7FE555
->Accurately ripped (v2, confidence 10/10)
Statistics
Read error : 0
Jitter error (maybe fixed) : 0
Retry sector count : 0
Damaged sector count : 0

Track 03
Filename : /Volumes/Music/03 It Could Happen To You.flac

Track gain : -5.28 dB
Peak : 0.942993
CRC32 hash (test run) : F17A821E
CRC32 hash : F17A821E
CRC32 hash (skip zero) : 390D8FDA
AccurateRip v1 signature : 6B5F389D
AccurateRip v2 signature : 568BCE08
->Accurately ripped (v2, confidence 10/10)
Statistics
Read error : 0
Jitter error (maybe fixed) : 0
Retry sector count : 0
Damaged sector count : 0

Track 04
Filename : /Volumes/Music/04 Emily.flac

Track gain : -4.10 dB
Peak : 0.896698
CRC32 hash (test run) : 7D24A94D
CRC32 hash : 7D24A94D
CRC32 hash (skip zero) : 1F5B2330
AccurateRip v1 signature : 6A033F7A
AccurateRip v2 signature : 77FC13C2
->Accurately ripped (v2, confidence 10/10)
Statistics
Read error : 0
Jitter error (maybe fixed) : 0
Retry sector count : 0
Damaged sector count : 0

Track 05
Filename : /Volumes/Music/05 Line For Lyons.flac

Track gain : -5.20 dB
Peak : 0.907440
CRC32 hash (test run) : 489A3F18
CRC32 hash : 489A3F18
CRC32 hash (skip zero) : 800F8F80
AccurateRip v1 signature : E40FD5A1
AccurateRip v2 signature : F0080B57
->Accurately ripped (v2, confidence 10/10)
Statistics
Read error : 0
Jitter error (maybe fixed) : 0
Retry sector count : 0
Damaged sector count : 0

Track 06
Filename : /Volumes/Music/06 When Sunny Gets Blue.flac

Track gain : -4.80 dB
Peak : 0.900085
CRC32 hash (test run) : 3D1D8110
CRC32 hash : 3D1D8110
CRC32 hash (skip zero) : CF2050BA
AccurateRip v1 signature : 3153CF49
AccurateRip v2 signature : 892567AC
->Accurately ripped (v2, confidence 10/10)
Statistics
Read error : 0
Jitter error (maybe fixed) : 0
Retry sector count : 0
Damaged sector count : 0

Track 07
Filename : /Volumes/Music/07 Things Ain't What They Used To Be.flac

Track gain : -5.44 dB
Peak : 0.921692
CRC32 hash (test run) : 1BD7B878
CRC32 hash : 1BD7B878
CRC32 hash (skip zero) : 6095CEE2
AccurateRip v1 signature : E2ED18C4
AccurateRip v2 signature : 85D98AE6
->Accurately ripped (v2, confidence 10/10)
Statistics
Read error : 0
Jitter error (maybe fixed) : 0
Retry sector count : 0
Damaged sector count : 0

No errors occurred

End of status report

––-BEGIN XLD SIGNATURE––-
GfeFiaCv_OMRGHpZUEa1_MTyLRZJbyaXMoijlsDn_Iyf2yEx_XxA2hbekW6aiQuO4M0MVePff8X8bgnsWfozx4Ne1sZY6bSLDYTGQKK
––-END XLD SIGNATURE––-

X Lossless Decoder version 20191004 (152.0)

XLD extraction logfile from 2020-12-29 22:45:32 -0600

Paul Desmond / The Complete 1975 Toronto Recordings Disc5

Used drive : HL-DT-ST BD-RE WH16NS40 (revision 1.04)
Media type : Pressed CD

Ripper mode : XLD Secure Ripper
Disable audio cache : OK for the drive with a cache less than 1375KiB
Make use of C2 pointers : NO
Read offset correction : 6
Max retry count : 100
Gap status : Analyzed, Appended (except HTOA)

TOC of the extracted CD
Track | Start | Length | Start sector | End sector
––––––––––––––––––––––––––––-
1 | 00:00:00 | 10:44:55 | 0 | 48354
2 | 10:44:55 | 09:52:71 | 48355 | 92825
3 | 20:37:51 | 09:07:09 | 92826 | 133859
4 | 29:44:60 | 08:51:61 | 133860 | 173745
5 | 38:36:46 | 10:24:67 | 173746 | 220612
6 | 49:01:38 | 09:05:71 | 220613 | 261558
7 | 58:07:34 | 06:21:44 | 261559 | 290177

AccurateRip Summary (DiscID: 0012a211-006eb54e-6f0f1d07)
Track 01 : OK (v2, confidence 10/10)
Track 02 : OK (v2, confidence 10/10)
Track 03 : OK (v2, confidence 10/10)
Track 04 : OK (v2, confidence 10/10)
Track 05 : OK (v2, confidence 10/10)
Track 06 : OK (v2, confidence 10/10)
Track 07 : OK (v2, confidence 10/10)
->All tracks accurately ripped.

All Tracks
Album gain : -4.71 dB
Peak : 0.961639
Statistics
Read error : 0
Jitter error (maybe fixed) : 0
Retry sector count : 0
Damaged sector count : 0

Track 01
Filename : /Volumes/Music/01 I've Got You Under My Skin.flac
Pre-gap length : 00:02:00

Track gain : -4.68 dB
Peak : 0.961639
CRC32 hash (test run) : C922B0DE
CRC32 hash : C922B0DE
CRC32 hash (skip zero) : 5FB8891C
AccurateRip v1 signature : 148B860E
AccurateRip v2 signature : D8B0996D
->Accurately ripped (v2, confidence 10/10)
Statistics
Read error : 0
Jitter error (maybe fixed) : 0
Retry sector count : 0
Damaged sector count : 0

Track 02
Filename : /Volumes/Music/02 Just Squeeze Me.flac

Track gain : -5.04 dB
Peak : 0.905396
CRC32 hash (test run) : 6B40CD66
CRC32 hash : 6B40CD66
CRC32 hash (skip zero) : AA5F3302
AccurateRip v1 signature : AD3EECF0
AccurateRip v2 signature : 66D27D82
->Accurately ripped (v2, confidence 10/10)
Statistics
Read error : 0
Jitter error (maybe fixed) : 0
Retry sector count : 0
Damaged sector count : 0

Track 03
Filename : /Volumes/Music/03 All The Things You Are.flac

Track gain : -4.68 dB
Peak : 0.896759
CRC32 hash (test run) : 5D160F49
CRC32 hash : 5D160F49
CRC32 hash (skip zero) : B0153764
AccurateRip v1 signature : A983C424
AccurateRip v2 signature : 272C5AB9
->Accurately ripped (v2, confidence 10/10)
Statistics
Read error : 0
Jitter error (maybe fixed) : 0
Retry sector count : 0
Damaged sector count : 0

Track 04
Filename : /Volumes/Music/04 Autumn Leaves.flac

Track gain : -3.69 dB
Peak : 0.906830
CRC32 hash (test run) : E844CDAD
CRC32 hash : E844CDAD
CRC32 hash (skip zero) : 0E716A1A
AccurateRip v1 signature : BC9BF29E
AccurateRip v2 signature : 490AF610
->Accurately ripped (v2, confidence 10/10)
Statistics
Read error : 0
Jitter error (maybe fixed) : 0
Retry sector count : 0
Damaged sector count : 0

Track 05
Filename : /Volumes/Music/05 Wave.flac

Track gain : -5.00 dB
Peak : 0.919464
CRC32 hash (test run) : 584E1ADA
CRC32 hash : 584E1ADA
CRC32 hash (skip zero) : 571F024F
AccurateRip v1 signature : A5A1577A
AccurateRip v2 signature : B6BC95C6
->Accurately ripped (v2, confidence 10/10)
Statistics
Read error : 0
Jitter error (maybe fixed) : 0
Retry sector count : 0
Damaged sector count : 0

Track 06
Filename : /Volumes/Music/06 Nuages.flac

Track gain : -3.65 dB
Peak : 0.929230
CRC32 hash (test run) : B5901A1D
CRC32 hash : B5901A1D
CRC32 hash (skip zero) : 1A09ECCE
AccurateRip v1 signature : B1A835CE
AccurateRip v2 signature : 2269DC90
->Accurately ripped (v2, confidence 10/10)
Statistics
Read error : 0
Jitter error (maybe fixed) : 0
Retry sector count : 0
Damaged sector count : 0

Track 07
Filename : /Volumes/Music/07 East Of The Sun.flac

Track gain : -6.02 dB
Peak : 0.934357
CRC32 hash (test run) : 941A7EB9
CRC32 hash : 941A7EB9
CRC32 hash (skip zero) : 3713172C
AccurateRip v1 signature : 20EAE01E
AccurateRip v2 signature : 1B06C552
->Accurately ripped (v2, confidence 10/10)
Statistics
Read error : 0
Jitter error (maybe fixed) : 0
Retry sector count : 0
Damaged sector count : 0

No errors occurred

End of status report

––-BEGIN XLD SIGNATURE––-
5JaYT1uIMN5PJu.3LTb0TIvdGg9epAlNsgoIWXeG3ymD_alZGztsr3z4qZaWwmFxu8QRVL5XnyIUgH83O3XipQMszr4I6OgyiMMtbQW
––-END XLD SIGNATURE––-

X Lossless Decoder version 20191004 (152.0)

XLD extraction logfile from 2020-12-29 23:02:43 -0600

Paul Desmond / The Complete 1975 Toronto Recordings Disc6

Used drive : HL-DT-ST BD-RE WH16NS40 (revision 1.04)
Media type : Pressed CD

Ripper mode : XLD Secure Ripper
Disable audio cache : OK for the drive with a cache less than 1375KiB
Make use of C2 pointers : NO
Read offset correction : 6
Max retry count : 100
Gap status : Analyzed, Appended (except HTOA)

TOC of the extracted CD
Track | Start | Length | Start sector | End sector
––––––––––––––––––––––––––––-
1 | 00:00:00 | 11:54:37 | 0 | 53586
2 | 11:54:37 | 12:20:65 | 53587 | 109151
3 | 24:15:27 | 11:18:53 | 109152 | 160054
4 | 35:34:05 | 08:33:50 | 160055 | 198579
5 | 44:07:55 | 12:18:05 | 198580 | 253934
6 | 56:25:60 | 11:49:56 | 253935 | 307165
7 | 68:15:41 | 09:36:43 | 307166 | 350408

AccurateRip Summary (DiscID: 0015dd34-0082621b-6b124007)
Track 01 : OK (v2, confidence 10/10)
Track 02 : OK (v2, confidence 10/10)
Track 03 : OK (v2, confidence 10/10)
Track 04 : OK (v2, confidence 10/10)
Track 05 : OK (v2, confidence 10/10)
Track 06 : OK (v2, confidence 10/10)
Track 07 : OK (v2, confidence 10/10)
->All tracks accurately ripped.

All Tracks
Album gain : -3.99 dB
Peak : 0.954742
Statistics
Read error : 0
Jitter error (maybe fixed) : 0
Retry sector count : 0
Damaged sector count : 0

Track 01
Filename : /Volumes/Music/01 Let's Get Away From It All.flac
Pre-gap length : 00:02:00

Track gain : -4.57 dB
Peak : 0.909943
CRC32 hash (test run) : 7AFAE0C3
CRC32 hash : 7AFAE0C3
CRC32 hash (skip zero) : 4D8F5DE4
AccurateRip v1 signature : 94D516D4
AccurateRip v2 signature : 68381CEE
->Accurately ripped (v2, confidence 10/10)
Statistics
Read error : 0
Jitter error (maybe fixed) : 0
Retry sector count : 0
Damaged sector count : 0

Track 02
Filename : /Volumes/Music/02 Line For Lyons.flac

Track gain : -4.78 dB
Peak : 0.914459
CRC32 hash (test run) : 74A0CA17
CRC32 hash : 74A0CA17
CRC32 hash (skip zero) : A5FED5AC
AccurateRip v1 signature : 47FC9ECA
AccurateRip v2 signature : 933F98CB
->Accurately ripped (v2, confidence 10/10)
Statistics
Read error : 0
Jitter error (maybe fixed) : 0
Retry sector count : 0
Damaged sector count : 0

Track 03
Filename : /Volumes/Music/03 Just Squeeze Me.flac

Track gain : -4.38 dB
Peak : 0.913422
CRC32 hash (test run) : 472E3246
CRC32 hash : 472E3246
CRC32 hash (skip zero) : 53C9A402
AccurateRip v1 signature : 51928771
AccurateRip v2 signature : C482BE87
->Accurately ripped (v2, confidence 10/10)
Statistics
Read error : 0
Jitter error (maybe fixed) : 0
Retry sector count : 0
Damaged sector count : 0

Track 04
Filename : /Volumes/Music/04 My Funny Valentine.flac

Track gain : -2.96 dB
Peak : 0.898254
CRC32 hash (test run) : 30209C31
CRC32 hash : 30209C31
CRC32 hash (skip zero) : DA7709C4
AccurateRip v1 signature : 4A9077B1
AccurateRip v2 signature : 5D8B0373
->Accurately ripped (v2, confidence 10/10)
Statistics
Read error : 0
Jitter error (maybe fixed) : 0
Retry sector count : 0
Damaged sector count : 0

Track 05
Filename : /Volumes/Music/05 Mean To Me.flac

Track gain : -4.05 dB
Peak : 0.908661
CRC32 hash (test run) : 855B3D41
CRC32 hash : 855B3D41
CRC32 hash (skip zero) : FD5AA1D3
AccurateRip v1 signature : 84A8B99F
AccurateRip v2 signature : 9E030476
->Accurately ripped (v2, confidence 10/10)
Statistics
Read error : 0
Jitter error (maybe fixed) : 0
Retry sector count : 0
Damaged sector count : 0

Track 06
Filename : /Volumes/Music/06 Wendy.flac

Track gain : -2.39 dB
Peak : 0.895691
CRC32 hash (test run) : 34D15BF2
CRC32 hash : 34D15BF2
CRC32 hash (skip zero) : 08CD3327
AccurateRip v1 signature : 53C669FA
AccurateRip v2 signature : E920032D
->Accurately ripped (v2, confidence 10/10)
Statistics
Read error : 0
Jitter error (maybe fixed) : 0
Retry sector count : 0
Damaged sector count : 0

Track 07
Filename : /Volumes/Music/07 Things Ain't What They Used To Be.flac

Track gain : -3.70 dB
Peak : 0.954742
CRC32 hash (test run) : DD2C46D8
CRC32 hash : DD2C46D8
CRC32 hash (skip zero) : B4CCB382
AccurateRip v1 signature : 12C88586
AccurateRip v2 signature : 992A282F
->Accurately ripped (v2, confidence 10/10)
Statistics
Read error : 0
Jitter error (maybe fixed) : 0
Retry sector count : 0
Damaged sector count : 0

No errors occurred

End of status report

––-BEGIN XLD SIGNATURE––-
JYq0JAs2xYDcv7S_1KfS3fEEWLoEOAFp8QbIxXABFL4iswBgN0RdVcRSunWoOuDecl6XtsBWE83bCqPH2LqnK2_b1VoQ_GNkFFbbN9G
––-END XLD SIGNATURE––-

X Lossless Decoder version 20191004 (152.0)

XLD extraction logfile from 2020-12-30 09:30:46 -0600

Paul Desmond / The Complete 1975 Toronto Recordings Disk7

Used drive : HL-DT-ST BD-RE WH16NS40 (revision 1.04)
Media type : Pressed CD

Ripper mode : XLD Secure Ripper
Disable audio cache : OK for the drive with a cache less than 1375KiB
Make use of C2 pointers : NO
Read offset correction : 6
Max retry count : 100
Gap status : Analyzed, Appended (except HTOA)

TOC of the extracted CD
Track | Start | Length | Start sector | End sector
––––––––––––––––––––––––––––-
1 | 00:00:00 | 07:34:23 | 0 | 34072
2 | 07:34:23 | 11:39:01 | 34073 | 86498
3 | 19:13:24 | 09:08:64 | 86499 | 127662
4 | 28:22:13 | 09:50:66 | 127663 | 171978
5 | 38:13:04 | 09:39:33 | 171979 | 215436
6 | 47:52:37 | 07:26:14 | 215437 | 248900
7 | 55:18:51 | 10:44:55 | 248901 | 297255
8 | 66:03:31 | 07:23:01 | 297256 | 330481

AccurateRip Summary (DiscID: 00171362-0099e482-6f113608)
Track 01 : OK (v2, confidence 10/10)
Track 02 : OK (v2, confidence 10/10)
Track 03 : OK (v2, confidence 10/10)
Track 04 : OK (v2, confidence 10/10)
Track 05 : OK (v2, confidence 10/10)
Track 06 : OK (v2, confidence 10/10)
Track 07 : OK (v2, confidence 10/10)
Track 08 : OK (v2, confidence 10/10)
->All tracks accurately ripped.

All Tracks
Album gain : -3.54 dB
Peak : 0.897034
Statistics
Read error : 0
Jitter error (maybe fixed) : 0
Retry sector count : 0
Damaged sector count : 0

Track 01
Filename : /Volumes/Music/01 Wendy.flac
Pre-gap length : 00:02:00

Track gain : -3.11 dB
Peak : 0.894501
CRC32 hash (test run) : 5772BD6E
CRC32 hash : 5772BD6E
CRC32 hash (skip zero) : EDCE4773
AccurateRip v1 signature : 717F7D50
AccurateRip v2 signature : B0040923
->Accurately ripped (v2, confidence 10/10)
Statistics
Read error : 0
Jitter error (maybe fixed) : 0
Retry sector count : 0
Damaged sector count : 0

Track 02
Filename : /Volumes/Music/02 Wave.flac

Track gain : -3.86 dB
Peak : 0.895447
CRC32 hash (test run) : 34A2C471
CRC32 hash : 34A2C471
CRC32 hash (skip zero) : 3D9F7974
AccurateRip v1 signature : 7281D312
AccurateRip v2 signature : 269FA5BE
->Accurately ripped (v2, confidence 10/10)
Statistics
Read error : 0
Jitter error (maybe fixed) : 0
Retry sector count : 0
Damaged sector count : 0

Track 03
Filename : /Volumes/Music/03 Things Ain't What They Used To Be.flac

Track gain : -3.40 dB
Peak : 0.894165
CRC32 hash (test run) : 754E9DDB
CRC32 hash : 754E9DDB
CRC32 hash (skip zero) : 03C6BAC5
AccurateRip v1 signature : FCC66B40
AccurateRip v2 signature : 62DFDC34
->Accurately ripped (v2, confidence 10/10)
Statistics
Read error : 0
Jitter error (maybe fixed) : 0
Retry sector count : 0
Damaged sector count : 0

Track 04
Filename : /Volumes/Music/04 Nancy.flac

Track gain : -4.00 dB
Peak : 0.894562
CRC32 hash (test run) : 688B0296
CRC32 hash : 688B0296
CRC32 hash (skip zero) : A1CD3403
AccurateRip v1 signature : 45346963
AccurateRip v2 signature : 9FDE63CA
->Accurately ripped (v2, confidence 10/10)
Statistics
Read error : 0
Jitter error (maybe fixed) : 0
Retry sector count : 0
Damaged sector count : 0

Track 05
Filename : /Volumes/Music/05 Manha de Carnaval.flac

Track gain : -3.12 dB
Peak : 0.894562
CRC32 hash (test run) : 74B48257
CRC32 hash : 74B48257
CRC32 hash (skip zero) : EECC0E21
AccurateRip v1 signature : 5693D218
AccurateRip v2 signature : A48B6937
->Accurately ripped (v2, confidence 10/10)
Statistics
Read error : 0
Jitter error (maybe fixed) : 0
Retry sector count : 0
Damaged sector count : 0

Track 06
Filename : /Volumes/Music/06 Here's That Rainy Day.flac

Track gain : -2.06 dB
Peak : 0.894226
CRC32 hash (test run) : 372CD1F6
CRC32 hash : 372CD1F6
CRC32 hash (skip zero) : 5400B874
AccurateRip v1 signature : CCAD61F1
AccurateRip v2 signature : A22B80ED
->Accurately ripped (v2, confidence 10/10)
Statistics
Read error : 0
Jitter error (maybe fixed) : 0
Retry sector count : 0
Damaged sector count : 0

Track 07
Filename : /Volumes/Music/07 My Funny Valentine.flac

Track gain : -3.33 dB
Peak : 0.897034
CRC32 hash (test run) : 21FAA290
CRC32 hash : 21FAA290
CRC32 hash (skip zero) : C3913E44
AccurateRip v1 signature : 41D388FF
AccurateRip v2 signature : 8D4B9908
->Accurately ripped (v2, confidence 10/10)
Statistics
Read error : 0
Jitter error (maybe fixed) : 0
Retry sector count : 0
Damaged sector count : 0

Track 08
Filename : /Volumes/Music/08 Take Five.flac

Track gain : -4.77 dB
Peak : 0.894379
CRC32 hash (test run) : 80B12436
CRC32 hash : 80B12436
CRC32 hash (skip zero) : A388F7C5
AccurateRip v1 signature : AEEC5B27
AccurateRip v2 signature : 9544559D
->Accurately ripped (v2, confidence 10/10)
Statistics
Read error : 0
Jitter error (maybe fixed) : 0
Retry sector count : 0
Damaged sector count : 0

No errors occurred

End of status report

––-BEGIN XLD SIGNATURE––-
vkUROHV3KOUp21p_GlBz7RlUBi2wLt5EL86AOK4dWBfowmZNwNHYSzkjKzViYkkfBNQE0JQtdVJKgVh_8FvgjRBssDxtF7cXW9oqn8q
––-END XLD SIGNATURE––-

All thanks go to the michel0749

More Music in My Blog
Follow My RSS Channel